<?xml version="1.0" standalone="no"?>
<!DOCTYPE svg PUBLIC "-//W3C//DTD SVG 1.1//EN" "http://www.w3.org/Graphics/SVG/1.1/DTD/svg11.dtd" >
<svg xmlns="http://www.w3.org/2000/svg">
<metadata></metadata>
<defs>
<font id="lloyds_bank_jackmedium" horiz-adv-x="1112" >
<font-face units-per-em="2048" ascent="1536" descent="-512" />
<missing-glyph horiz-adv-x="380" />
<glyph unicode="&#xfb01;" horiz-adv-x="1138" d="M41 819v174h145v82q0 190 113 280.5t324 90.5q86 0 162.5 -8t129.5 -19l-16 -184q-49 10 -114.5 16t-131.5 6q-129 0 -185 -43t-56 -157v-64h596v-993h-226v819h-370v-819h-226v819h-145z" />
<glyph unicode="&#xfb02;" horiz-adv-x="1142" d="M41 819v174h145v82q0 90 25 159t79 116t140 71.5t207 24.5q43 0 93 -4t100.5 -10.5t99.5 -14.5t88 -16v-1401h-225v1245q-35 6 -84.5 10.5t-85.5 4.5q-119 0 -165 -48.5t-46 -158.5v-60h211l-13 -174h-198v-819h-226v819h-145z" />
<glyph unicode="&#xfb03;" horiz-adv-x="1744" d="M41 819v174h145v74q0 180 91.5 279.5t277.5 99.5q66 0 135 -16l-18 -183q-18 4 -43 7t-45 3q-98 0 -135 -46t-37 -158v-60h381v82q0 190 112.5 280.5t323.5 90.5q86 0 162.5 -8t130.5 -19l-17 -184q-49 10 -114.5 16t-130.5 6q-129 0 -185.5 -43t-56.5 -157v-64h596v-993 h-225v819h-371v-819h-225v819h-381v-819h-226v819h-145z" />
<glyph unicode="&#xfb04;" horiz-adv-x="1748" d="M41 819v174h145v74q0 180 91.5 279.5t277.5 99.5q66 0 135 -16l-18 -183q-18 4 -43 7t-45 3q-98 0 -135 -46t-37 -158v-60h381v82q0 90 24.5 159t78.5 116t140 71.5t207 24.5q43 0 93 -4t100.5 -10.5t99.5 -14.5t88 -16v-1401h-225v1245q-35 6 -84 10.5t-86 4.5 q-119 0 -165 -48.5t-46 -158.5v-60h211l-12 -174h-199v-819h-225v819h-381v-819h-226v819h-145z" />
<glyph horiz-adv-x="0" />
<glyph horiz-adv-x="0" />
<glyph unicode="&#xd;" horiz-adv-x="380" />
<glyph unicode=" "  horiz-adv-x="380" />
<glyph unicode="&#x09;" horiz-adv-x="380" />
<glyph unicode="&#xa0;" horiz-adv-x="380" />
<glyph unicode="!" horiz-adv-x="544" d="M143 102v19q0 61 28 98t101 37q74 0 100.5 -37t26.5 -98v-19q0 -63 -26.5 -99t-100.5 -36t-101.5 36t-27.5 99zM156 864v516h231v-516l-25 -446h-182z" />
<glyph unicode="&#x22;" horiz-adv-x="839" d="M109 1018v473h243l-45 -473h-198zM506 1018v473h244l-45 -473h-199z" />
<glyph unicode="#" d="M51 317v205h162l43 266h-205v205h230l53 357h207l-52 -357h228l53 357h207l-53 -357h137v-205h-164l-41 -266h205v-205h-234l-45 -317h-207l48 317h-230l-47 -317h-207l47 317h-135zM420 522h229l41 266h-229z" />
<glyph unicode="$" d="M98 1018q0 154 108.5 256t303.5 123v202h143v-198q80 -6 153 -23.5t126 -36.5l-21 -229q-63 29 -128.5 46.5t-129.5 21.5v-389l35 -11q76 -29 137.5 -62.5t103.5 -78.5t64.5 -104.5t22.5 -139.5q0 -188 -111.5 -289.5t-296.5 -121.5v-191h-143v184q-86 4 -177 22.5 t-167 45.5l16 231q76 -35 166 -55t162 -22v399l-31 12q-74 25 -135 60t-106.5 84t-70 113.5t-24.5 150.5zM369 1018q0 -66 40 -106t101 -68v330q-29 -6 -53 -17q-88 -43 -88 -139zM608 211q66 16 100.5 54t34.5 108q0 72 -34.5 108.5t-100.5 65.5v-336z" />
<glyph unicode="%" horiz-adv-x="1703" d="M129 1012q0 205 66.5 303t207.5 98t208 -98t67 -303t-66.5 -304.5t-208.5 -99.5q-141 0 -207.5 99.5t-66.5 304.5zM309 1012q0 -137 23.5 -193.5t70.5 -56.5q49 0 72 56t23 194q0 131 -23 189.5t-72 58.5q-47 0 -70.5 -58.5t-23.5 -189.5zM391 76l774 1366l164 -90 l-774 -1372zM1026 371q0 205 66.5 303t207.5 98t208 -98.5t67 -302.5q0 -205 -66.5 -304.5t-208.5 -99.5q-141 0 -207.5 99.5t-66.5 304.5zM1206 371q0 -137 23.5 -193.5t70.5 -56.5q49 0 72 56t23 194q0 131 -23 189t-72 58q-47 0 -70.5 -58t-23.5 -189z" />
<glyph unicode="&#x26;" horiz-adv-x="1355" d="M57 344v12q0 121 77 228.5t212 185.5q-76 82 -111.5 165t-35.5 161q0 63 25.5 121.5t73.5 101.5t116.5 68.5t156.5 25.5q74 0 135.5 -22.5t107.5 -64.5t71.5 -99.5t25.5 -124.5q0 -111 -70.5 -198t-193.5 -165q29 -31 70 -73.5t84 -85.5l83 -83t68 -67q31 63 47.5 142 t18.5 167h194q-10 -129 -35.5 -235.5t-76.5 -208.5q59 -59 121.5 -96t109.5 -54l-71 -178q-76 16 -147 57.5t-146 112.5q-158 -170 -426 -170q-123 0 -214 31t-150.5 82t-89.5 119.5t-30 144.5zM295 367q0 -92 68.5 -153.5t185.5 -61.5q92 0 162.5 30.5t111.5 81.5 q-43 39 -92 87t-98 98.5t-94 97.5t-76 82q-168 -111 -168 -262zM412 1092q0 -57 30.5 -109.5t85.5 -114.5q170 111 170 224q0 53 -36.5 92t-102.5 39q-68 0 -107.5 -36t-39.5 -95z" />
<glyph unicode="'" horiz-adv-x="442" d="M109 1018v473h243l-45 -473h-198z" />
<glyph unicode="(" horiz-adv-x="788" d="M158 596q0 270 112.5 494.5t304.5 406.5l127 -100q-156 -176 -230.5 -378t-74.5 -425t75 -425t228 -378l-122 -98q-190 180 -305 407.5t-115 495.5z" />
<glyph unicode=")" horiz-adv-x="788" d="M88 -209q154 176 228.5 378t74.5 425t-74.5 425t-228.5 378l125 100q193 -182 306.5 -406.5t113.5 -494.5q0 -264 -115 -493.5t-305 -409.5z" />
<glyph unicode="*" horiz-adv-x="745" d="M43 1106l66 164l200 -111l-26 230h176l-29 -234l205 115l65 -162l-231 -64l168 -174l-141 -104l-123 209l-125 -207l-142 106l168 170z" />
<glyph unicode="+" d="M143 440v201h303v313h218v-313h305v-201h-305v-311h-218v311h-303z" />
<glyph unicode="," horiz-adv-x="481" d="M78 -307q86 152 121 264q-102 23 -103 152v20q0 68 33 104.5t111 36.5t111.5 -41t33.5 -131q0 -86 -47 -206.5t-123 -249.5z" />
<glyph unicode="-" horiz-adv-x="593" d="M82 403v203h430v-203h-430z" />
<glyph unicode="." horiz-adv-x="481" d="M96 111v18q0 68 35 104.5t111 36.5q74 0 108.5 -36.5t34.5 -104.5v-18q0 -68 -35 -106t-108 -38q-76 0 -111 38t-35 106z" />
<glyph unicode="/" horiz-adv-x="831" d="M39 -33l512 1446h240l-510 -1446h-242z" />
<glyph unicode="0" d="M90 690q0 193 26.5 329t84 224t145.5 129t209 41q242 0 353.5 -172t111.5 -551q0 -375 -111.5 -549t-353.5 -174q-244 0 -354.5 174t-110.5 549zM350 690q0 -139 11.5 -236.5t36 -157.5t63.5 -87t94 -27t94 27t63.5 87t36 157.5t11.5 236.5t-11.5 236.5t-36 158t-63.5 87 t-94 26.5t-94 -26.5t-63.5 -87t-36 -158t-11.5 -236.5z" />
<glyph unicode="1" d="M121 1141l401 239h195v-1185h274v-195h-825v195h305v923l-285 -170z" />
<glyph unicode="2" d="M117 195l198 188q100 98 175 177t125.5 151.5t75 143.5t24.5 153q0 109 -58.5 151.5t-156.5 42.5q-66 0 -145 -19.5t-173 -66.5l-26 209q78 37 178 62.5t211 25.5q92 0 171 -23.5t135 -70.5t89 -118t33 -163q0 -86 -19.5 -162.5t-65.5 -156.5t-123 -167t-190 -194 l-176 -163h545v-195h-803z" />
<glyph unicode="3" d="M109 41l26 211q86 -37 167 -53.5t149 -16.5q129 0 196.5 58.5t67.5 169.5q0 70 -28 112.5t-81 71.5q-33 16 -80 26.5t-110 10.5h-62v186h62q117 0 185.5 55.5t68.5 159.5q0 170 -213 170q-135 0 -283 -61l-31 202q82 31 172.5 50.5t188.5 19.5q88 0 166 -20.5t135 -63.5 t90 -109.5t33 -158.5q0 -111 -52.5 -195t-156.5 -121v-6q119 -29 186.5 -113.5t67.5 -215.5q0 -217 -135.5 -330t-370.5 -113q-43 0 -90 5t-94 14.5t-92.5 24t-81.5 30.5z" />
<glyph unicode="4" d="M49 340v176q123 211 256 430t273 434h299v-845h178v-195h-178v-340h-246v340h-582zM287 535h344v575q-78 -123 -167 -275.5t-177 -299.5z" />
<glyph unicode="5" d="M115 31l28 205q76 -29 160 -44.5t170 -15.5q66 0 122 18.5t85 59.5q47 66 47 170q0 115 -56.5 168t-183.5 53q-68 0 -124 -12t-115 -29l-72 31l8 745h717l-12 -192h-475l-8 -363q80 25 180 25q184 0 291.5 -104.5t107.5 -309.5q0 -233 -130 -351t-361 -118 q-102 0 -201.5 17.5t-177.5 46.5z" />
<glyph unicode="6" d="M84 596q0 160 34 307.5t107.5 261t191.5 181t285 67.5q115 0 187 -22l-29 -197q-29 8 -70.5 11t-68.5 3q-76 0 -136.5 -24.5t-101.5 -65.5q-53 -53 -79.5 -129t-41.5 -160q49 29 116 45.5t132 16.5q201 0 308.5 -116t107.5 -314q0 -102 -29.5 -191.5t-88 -157 t-143.5 -106.5t-196 -39q-145 0 -239 54.5t-148.5 142.5t-76 200.5t-21.5 231.5zM341 539q1 -45 7 -88q16 -129 62.5 -202t154.5 -73q100 0 151.5 70.5t51.5 193.5t-53 183.5t-156 60.5q-57 0 -112.5 -16t-102.5 -43q-4 -41 -3 -86z" />
<glyph unicode="7" d="M109 1186v194h876v-202l-545 -1178h-260l553 1186h-624z" />
<glyph unicode="8" d="M88 371q0 117 65.5 214t186.5 154q-90 55 -147.5 131t-57.5 187q0 80 32 146.5t89 112.5t136 71.5t171 25.5q90 0 167 -22.5t132.5 -67.5t87 -109.5t31.5 -148.5q0 -96 -59.5 -182t-163.5 -144q123 -61 193.5 -145t70.5 -215q0 -98 -37 -175t-100.5 -129t-148.5 -80 t-183 -28q-92 0 -176 24.5t-148.5 75t-102.5 126t-38 178.5zM346 385q0 -98 59.5 -154.5t151.5 -56.5q96 0 151.5 55.5t55.5 151.5q0 80 -54 137.5t-171 114.5q-86 -35 -139.5 -98.5t-53.5 -149.5zM387 1057q0 -78 51 -130t127 -93q66 33 115 90t49 135t-47 121t-121 43 q-76 0 -125 -43t-49 -123z" />
<glyph unicode="9" d="M78 938q0 102 33.5 189t95 150.5t148.5 99.5t194 36q141 0 233 -50t146.5 -135t76 -197.5t21.5 -239.5q0 -158 -32.5 -305.5t-106.5 -263.5t-191.5 -185.5t-289.5 -69.5q-55 0 -104.5 6.5t-82.5 16.5l27 198q29 -10 70.5 -13t70.5 -3q86 0 148.5 29.5t105.5 81t68.5 120 t38.5 146.5q-47 -29 -113 -45.5t-131 -16.5q-201 0 -313.5 121t-112.5 330zM338 940q0 -119 55.5 -183.5t155.5 -64.5q59 0 114.5 16.5t102.5 45.5q2 18 3 41.5t1 48.5q4 170 -47 266t-174 96q-98 0 -154.5 -70.5t-56.5 -195.5z" />
<glyph unicode=":" horiz-adv-x="481" d="M88 111v18q0 68 35 104.5t110 36.5q74 0 109 -36.5t35 -104.5v-18q0 -68 -35 -106t-109 -38q-76 0 -110.5 38t-34.5 106zM88 866v19q0 68 35 104.5t110 36.5q74 0 109 -37t35 -104v-19q0 -68 -35 -105.5t-109 -37.5q-76 0 -110.5 38t-34.5 105z" />
<glyph unicode=";" horiz-adv-x="481" d="M78 -307q86 152 121 264q-102 23 -103 152v20q0 68 33 104.5t111 36.5t111.5 -41t33.5 -131q0 -86 -47 -206.5t-123 -249.5zM96 866v19q0 68 35 104.5t111 36.5q74 0 108.5 -37t34.5 -104v-19q0 -68 -35 -105.5t-108 -37.5q-76 0 -111 38t-35 105z" />
<glyph unicode="&#x3c;" d="M205 469v139l610 385l94 -166l-456 -286v-9l462 -282l-98 -164z" />
<glyph unicode="=" d="M143 219v203h826v-203h-826zM143 664v200h826v-200h-826z" />
<glyph unicode="&#x3e;" d="M197 250l462 280v9l-456 288l94 166l610 -385v-139l-612 -383z" />
<glyph unicode="?" horiz-adv-x="921" d="M66 1346q76 29 166 48t190 19q88 0 165 -20.5t133 -65.5t88 -117.5t32 -177.5q0 -186 -94.5 -284.5t-270.5 -114.5l-20 -234h-195l-24 385l55 4q156 14 228.5 64.5t72.5 167.5q0 100 -52.5 143t-162.5 43q-72 0 -151 -18.5t-144 -46.5zM227 109v16q0 66 31 101.5 t104 35.5q74 0 105 -36t31 -101v-16q0 -66 -31 -104t-105 -38t-104.5 38t-30.5 104z" />
<glyph unicode="@" horiz-adv-x="1634" d="M53 614q0 170 61.5 316.5t174 255t267.5 170t343 61.5q150 0 279 -43t223 -123t147.5 -193.5t53.5 -252.5q0 -109 -32 -201t-88.5 -159.5t-134 -105.5t-171.5 -38q-84 0 -140.5 35t-81.5 88q-37 -49 -94 -81t-133 -32q-119 0 -192.5 80t-73.5 219q0 94 24.5 175 t69.5 139.5t106.5 91.5t133.5 33q61 0 111 -19.5t89 -52.5l15 59h176l-53 -319q-10 -57 -17.5 -103.5t-7.5 -81.5q0 -31 19.5 -55t68.5 -24q51 0 89 25.5t64.5 71.5t40 108.5t13.5 134.5q0 96 -39 177t-107.5 139t-165 91t-210.5 33q-129 0 -241 -44t-195 -125t-131 -192.5 t-48 -246.5q0 -233 139.5 -362.5t389.5 -129.5q104 0 205.5 15.5t179.5 41.5l-43 -178q-51 -18 -141.5 -33.5t-221.5 -15.5q-164 0 -297 43t-227 126t-145.5 205t-51.5 277zM651 623q0 -82 33 -125t88 -43q53 0 89 28.5t59 73.5q2 18 6 47l8 58l31 192q-23 23 -53.5 38 t-71.5 15q-43 0 -78 -21.5t-59.5 -59.5t-38 -90t-13.5 -113z" />
<glyph unicode="A" horiz-adv-x="1226" d="M41 0q51 184 109.5 374.5t117 371t115.5 343t106 291.5h248q49 -129 105.5 -291.5t116 -343t117 -371t110.5 -374.5h-254q-18 68 -35.5 138.5t-36.5 142.5q-49 -8 -111.5 -12.5t-125.5 -4.5q-66 0 -131.5 4t-124.5 13q-20 -72 -39 -142.5t-35 -138.5h-252zM426 506 q86 -12 186 -12q47 0 94.5 4t92.5 8q-43 145 -88 290.5t-95 288.5h-8q-47 -143 -93 -288.5t-89 -290.5z" />
<glyph unicode="B" horiz-adv-x="1204" d="M156 0v1380h364q113 0 206 -11t160.5 -47t105.5 -104.5t38 -183.5q0 -94 -47 -176t-143 -113v-4q131 -23 207.5 -110.5t76.5 -224.5q0 -135 -47 -216t-123.5 -123t-176 -54.5t-204.5 -12.5h-417zM401 217h168q63 0 118.5 4t94.5 23.5t61.5 59.5t22.5 110q0 57 -19.5 94 t-55 58.5t-82.5 30.5t-103 9h-205v-389zM401 823h156q113 0 167 38t54 140q0 82 -45 122t-172 40h-160v-340z" />
<glyph unicode="C" horiz-adv-x="1128" d="M96 682v14q0 360 164 538.5t463 178.5q86 0 171 -18.5t153 -53.5l-27 -227q-55 29 -129 47.5t-148 18.5q-205 0 -297 -132.5t-92 -359.5v-10q0 -109 20.5 -198t65.5 -152.5t117 -98t174 -34.5q72 0 151 16t146 45l19 -217q-72 -35 -163 -53.5t-173 -18.5q-160 0 -277 48 t-191.5 140.5t-110.5 225.5t-36 301z" />
<glyph unicode="D" horiz-adv-x="1304" d="M156 0v1380h346q178 0 311 -31.5t220 -109.5t131 -210t44 -331v-14q0 -197 -51 -340t-160 -229q-86 -68 -213 -91.5t-303 -23.5h-325zM401 223h88q29 0 53.5 1t49.5 3q100 6 168.5 35t110.5 85t60.5 142t18.5 205v6q0 113 -15 199t-59.5 143.5t-125 86t-209.5 28.5h-140 v-934z" />
<glyph unicode="E" horiz-adv-x="1081" d="M156 0v1380h833l-26 -223h-562v-342h504l-24 -223h-480v-369h576l-23 -223h-798z" />
<glyph unicode="F" horiz-adv-x="1050" d="M156 0v1380h833l-24 -223h-564v-342h504l-20 -223h-484v-592h-245z" />
<glyph unicode="G" horiz-adv-x="1269" d="M96 670v14q0 356 170 542.5t473 186.5q100 0 196.5 -21.5t184.5 -58.5l-26 -225q-76 35 -157 55.5t-169 20.5q-203 0 -308.5 -127t-105.5 -369v-6q0 -113 20.5 -204t65.5 -155.5t116 -99.5t173 -35q41 0 84 7.5t78 19.5v320h-203l-18 208h465v-694q-84 -35 -194 -58.5 t-206 -23.5q-172 0 -294 48t-198.5 139.5t-111.5 221.5t-35 294z" />
<glyph unicode="H" horiz-adv-x="1345" d="M156 0v1380h245v-565h543v565h246v-1380h-246v592h-543v-592h-245z" />
<glyph unicode="I" horiz-adv-x="569" d="M162 0v1380h246v-1380h-246z" />
<glyph unicode="J" horiz-adv-x="870" d="M51 2l10 201q47 -12 85 -18.5t75 -6.5q143 0 201 84q29 41 37 100.5t8 147.5v870h246v-876q0 -57 -4 -115.5t-17.5 -113t-37 -103.5t-62.5 -86q-63 -61 -150.5 -90t-189.5 -29q-109 0 -201 35z" />
<glyph unicode="K" horiz-adv-x="1175" d="M156 0v1380h245v-614q135 123 247 277.5t204 336.5h256q-88 -172 -194.5 -332.5t-233.5 -304.5l455 -743h-287l-346 584q-23 -23 -50.5 -44.5t-50.5 -35.5v-504h-245z" />
<glyph unicode="L" horiz-adv-x="1001" d="M156 0v1380h245v-1157h543l-20 -223h-768z" />
<glyph unicode="M" horiz-adv-x="1632" d="M127 0q6 147 13 320.5t17.5 355.5t20.5 363.5t23 340.5h209q45 -96 99 -217t110.5 -244.5t107.5 -240.5t90 -203q39 88 91.5 204t108.5 239.5t111.5 244.5t100.5 217h203q12 -160 23 -340t21.5 -361t17.5 -355t11 -324h-237q-4 193 -12.5 419t-24.5 488 q-78 -180 -167 -380.5t-173 -391.5h-154l-336 772q-14 -262 -23 -488t-13 -419h-238z" />
<glyph unicode="N" horiz-adv-x="1394" d="M156 0v1380h209l647 -927v927h227v-1380h-197l-659 944v-944h-227z" />
<glyph unicode="O" horiz-adv-x="1306" d="M96 684v12q0 158 30 290t95.5 227.5t172 147.5t259.5 52q154 0 260.5 -52t172 -147.5t95 -227.5t29.5 -290v-12q0 -158 -29.5 -290t-95 -227t-172 -147.5t-260.5 -52.5t-260 52.5t-171.5 147.5t-95.5 227t-30 290zM356 690q0 -242 65.5 -368.5t231.5 -126.5 q164 0 230.5 125.5t66.5 369.5q0 242 -66.5 369t-230.5 127q-166 0 -231.5 -127t-65.5 -369z" />
<glyph unicode="P" horiz-adv-x="1142" d="M156 0v1380h340q131 0 236.5 -19.5t179 -69.5t113.5 -136t40 -219v-10q0 -231 -138.5 -339t-375.5 -108h-150v-479h-245zM401 702h80q74 0 134.5 5.5t102.5 28t65.5 69.5t23.5 131v6q0 55 -19.5 101.5t-54.5 70.5q-41 29 -100.5 36t-149.5 7h-82v-455z" />
<glyph unicode="Q" horiz-adv-x="1306" d="M96 684v12q0 158 30 290t95.5 227.5t172 147.5t259.5 52q154 0 260.5 -52t172 -147.5t95 -227.5t29.5 -290v-12q0 -203 -48 -359.5t-161 -248.5l203 -211l-203 -141q-14 16 -45.5 54t-65.5 78t-62.5 75.5t-39.5 48.5q-61 -12 -135 -13q-154 0 -260 52.5t-171.5 147.5 t-95.5 227t-30 290zM356 690q0 -242 65.5 -368.5t231.5 -126.5q164 0 230.5 125.5t66.5 369.5q0 242 -66.5 369t-230.5 127q-166 0 -231.5 -127t-65.5 -369z" />
<glyph unicode="R" horiz-adv-x="1159" d="M156 0v1380h348q113 0 214 -16t176 -64.5t119 -132.5t44 -219v-10q0 -147 -60.5 -252.5t-181.5 -153.5l272 -532h-256l-231 489q-18 -2 -35.5 -2h-40.5h-123v-487h-245zM401 707h107q74 0 129 7t90 29.5t52.5 67.5t17.5 123v4q0 123 -66.5 172t-206.5 49h-123v-452z" />
<glyph unicode="S" horiz-adv-x="1044" d="M94 1022q0 86 33 158.5t94.5 124t148.5 80t197 28.5q92 0 177 -19.5t145 -43.5l-21 -232q-68 33 -141.5 51.5t-142.5 18.5q-47 0 -85 -7t-65 -24q-82 -39 -82 -135q0 -43 16.5 -75t45 -55.5t66.5 -42t81 -34.5l94 -35q74 -29 132.5 -62.5t98.5 -79.5t61.5 -106.5 t21.5 -140.5q0 -109 -36 -188.5t-100.5 -132t-154.5 -78t-201 -25.5q-88 0 -185 19.5t-177 48.5l16 235q78 -35 168 -57.5t158 -22.5q131 0 192.5 40t61.5 139q0 45 -14.5 75.5t-40 53t-63.5 40t-87 35.5l-92 35q-70 27 -128.5 62t-101.5 84t-66.5 114.5t-23.5 153.5z" />
<glyph unicode="T" horiz-adv-x="1087" d="M57 1157v223h977l-24 -223h-346v-1157h-246v1157h-361z" />
<glyph unicode="U" horiz-adv-x="1314" d="M150 514v866h245v-850q0 -176 57.5 -255.5t204.5 -79.5t205 79.5t58 255.5v850h245v-866q0 -141 -27.5 -244.5t-89 -171t-157.5 -99.5t-234 -32q-137 0 -233 32t-157.5 99.5t-89 171t-27.5 244.5z" />
<glyph unicode="V" horiz-adv-x="1228" d="M41 1380h262q29 -117 69 -256t82 -280.5t83 -276.5t75 -245h4q33 111 75 245.5t84 276t82 281t69 255.5h262q-47 -178 -102.5 -366.5t-114 -369.5t-115.5 -346t-106 -298h-271q-49 133 -106.5 298t-115.5 346t-113.5 369.5t-102.5 366.5z" />
<glyph unicode="W" horiz-adv-x="1837" d="M43 1380h260q25 -119 56.5 -260t66.5 -284.5t69.5 -278.5t65.5 -242h4q20 82 38 158t36 154t36.5 165t41.5 189q18 96 35.5 193.5t31.5 205.5h277q16 -109 35.5 -206t40.5 -193q23 -102 41 -188t36.5 -164t37 -154t40.5 -160h4q31 106 64 241.5t65.5 279t62.5 285 t52 259.5h254q-39 -178 -84 -363.5t-92 -365.5t-94 -346t-90 -305h-281q-27 100 -56.5 225t-59 259t-58.5 271.5t-51 264.5h-4q-25 -127 -53.5 -263t-58.5 -270.5t-60.5 -259.5t-57.5 -227h-280q-43 143 -91.5 311t-97.5 346.5t-95 361.5t-87 361z" />
<glyph unicode="X" horiz-adv-x="1210" d="M45 0q53 102 102.5 192.5t98.5 174.5t100 164.5t107 164.5q-104 160 -202.5 333t-184.5 351h280q51 -125 118.5 -249.5t139.5 -233.5q76 109 143.5 231.5t120.5 251.5h281q-84 -178 -183.5 -352t-209.5 -330q106 -168 205.5 -333.5t207.5 -364.5h-301q-59 131 -127.5 257 t-134.5 230h-2q-70 -104 -138.5 -231t-127.5 -256h-293z" />
<glyph unicode="Y" horiz-adv-x="1122" d="M41 1380h256q61 -195 124.5 -360.5t135.5 -314.5h8q74 150 136.5 315.5t123.5 359.5h256q-78 -238 -183 -475t-216 -446v-459h-244v459q-113 207 -217 446.5t-180 474.5z" />
<glyph unicode="Z" horiz-adv-x="1110" d="M86 190l614 967h-577v223h887v-186l-613 -971h623l-27 -223h-889z" />
<glyph unicode="[" horiz-adv-x="722" d="M160 -193v1606h420v-176h-205v-1255h205v-175h-420z" />
<glyph unicode="\" horiz-adv-x="831" d="M39 1413h242l512 -1446h-242z" />
<glyph unicode="]" horiz-adv-x="722" d="M143 -18h203v1255h-203v176h420v-1606h-420v175z" />
<glyph unicode="^" d="M76 670l383 663h192l383 -663l-178 -99l-301 523h-2l-301 -523z" />
<glyph unicode="_" horiz-adv-x="1009" d="M8 -131h993v-158h-993v158z" />
<glyph unicode="`" horiz-adv-x="749" d="M102 1341l111 177l436 -263l-78 -141z" />
<glyph unicode="a" horiz-adv-x="1028" d="M70 268q0 176 136 271.5t421 95.5h45v45q0 90 -51.5 124t-155.5 34q-72 0 -150.5 -18.5t-146.5 -51.5l-31 184q86 35 183.5 54.5t189.5 19.5t163.5 -18.5t122 -61.5t77 -111.5t26.5 -168.5v-482q0 -41 12.5 -57t57.5 -16v-127q-20 -6 -54 -11.5t-69 -5.5 q-61 0 -103.5 26.5t-58.5 88.5q-111 -115 -303 -115q-63 0 -119.5 19.5t-99.5 57.5t-67.5 94.5t-24.5 129.5zM307 291q0 -59 36 -99t114 -40q63 0 120.5 23.5t94.5 62.5v239h-41q-61 0 -119.5 -8t-104 -28.5t-73 -56.5t-27.5 -93z" />
<glyph unicode="b" horiz-adv-x="1105" d="M117 0q4 76 4 165v163v1085h227v-487q59 47 131 73.5t154 26.5q199 0 295 -136t96 -384v-10q0 -246 -95 -387.5t-306 -141.5q-92 0 -170 34t-138 89l-10 -90h-188zM348 270q37 -41 94.5 -68.5t112.5 -27.5q129 0 180 80t51 246q0 156 -47 236.5t-174 80.5 q-59 0 -117.5 -23.5t-99.5 -60.5v-463z" />
<glyph unicode="c" horiz-adv-x="927" d="M82 485v11q0 139 37 239.5t103.5 165t156.5 95t194 30.5q82 0 156 -17.5t127 -45.5l-18 -201q-41 27 -105.5 45t-130.5 18q-283 0 -283 -329v-7q0 -168 69 -246.5t210 -78.5q59 0 121.5 12t122.5 37l16 -190q-63 -29 -141 -42.5t-150 -13.5q-256 0 -370 142 q-55 66 -85 161t-30 215z" />
<glyph unicode="d" horiz-adv-x="1105" d="M80 485v13q0 117 27.5 213t83 166.5t137.5 109.5t190 39q70 0 133.5 -19.5t106.5 -54.5v461h227v-1012q0 -94 1 -198.5t3 -202.5h-192l-15 88h-2q-117 -121 -305 -121q-88 0 -160.5 34t-125 100.5t-81 162.5t-28.5 221zM317 496q0 -68 11.5 -126.5t39 -102.5t70.5 -69.5 t109 -25.5q61 0 116.5 26.5t94.5 67.5v484q-35 33 -87.5 52t-111.5 19q-68 0 -115 -26.5t-74.5 -70.5t-40 -103.5t-12.5 -124.5z" />
<glyph unicode="e" horiz-adv-x="1042" d="M82 494v4q0 115 28.5 212t85 167.5t142.5 109.5t203 39q217 0 318.5 -126t101.5 -388q0 -29 -1.5 -54.5t-3.5 -56.5h-637q10 -113 74 -177t195 -64q80 0 161.5 14t141.5 37l14 -182q-72 -31 -154.5 -46.5t-168.5 -15.5q-246 0 -373 127t-127 400zM317 565h412 q0 57 -9 108.5t-30.5 89.5t-59.5 59.5t-95 21.5q-59 0 -100.5 -22.5t-67 -61.5t-37 -89t-13.5 -106z" />
<glyph unicode="f" horiz-adv-x="655" d="M41 819v174h145v74q0 180 91.5 279.5t277.5 99.5q66 0 135 -16l-18 -183q-18 4 -43 7t-45 3q-98 0 -134 -46t-36 -158v-60h213l-13 -174h-200v-819h-228v819h-145z" />
<glyph unicode="g" horiz-adv-x="1048" d="M41 -166q0 70 44 125t108 80q-39 23 -63 62.5t-24 86.5q0 57 36 104.5t94 82.5q-66 39 -109 112.5t-43 176.5v10q0 90 33 156.5t90 109.5t135 64.5t168 21.5q168 0 281 -72q41 37 108.5 74t151.5 51l-23 -196q-35 -4 -77 -11.5t-68 -19.5q23 -37 38 -82t15 -96v-10 q0 -96 -35 -164t-93 -110t-136 -61.5t-162 -19.5q-33 0 -72 5t-67 10q-33 -8 -51.5 -30t-18.5 -48q0 -66 86 -66h260q152 0 245 -68.5t93 -209.5q0 -82 -42 -147.5t-109.5 -110.5t-153.5 -69t-174 -24q-223 0 -344 78t-121 205zM250 -129q0 -66 63.5 -108t194.5 -42 q115 0 187.5 44.5t72.5 119.5q0 51 -31.5 83t-103.5 32h-165t-144 4q-29 -20 -51.5 -53t-22.5 -80zM326 668q0 -98 49 -146.5t137 -48.5q84 0 133 48t49 147q0 94 -49 144t-133 50q-88 0 -137 -50t-49 -144z" />
<glyph unicode="h" horiz-adv-x="1105" d="M117 0v1413h227v-512q59 57 141 91t174 34q78 0 141.5 -22.5t104.5 -63.5q47 -47 66.5 -118.5t19.5 -174.5v-647h-227v610q0 113 -39 160q-41 47 -131 47q-66 0 -134.5 -30.5t-115.5 -79.5v-707h-227z" />
<glyph unicode="i" horiz-adv-x="489" d="M117 1270v16q0 63 27.5 101t101.5 38q72 0 100.5 -37.5t28.5 -101.5v-16q0 -63 -29 -101.5t-100 -38.5q-74 0 -101.5 38t-27.5 102zM131 0v993h227v-993h-227z" />
<glyph unicode="j" horiz-adv-x="485" d="M-88 -430l18 182q14 -4 33 -5t35 -1q63 0 97 49t34 176v1022h227v-968q0 -102 -14 -187.5t-52 -147t-104.5 -96t-173.5 -34.5q-23 0 -51.5 3t-48.5 7zM115 1270v16q0 63 27.5 101t101.5 38q72 0 100.5 -37.5t28.5 -101.5v-16q0 -63 -29 -99t-100 -36q-74 0 -101.5 35.5 t-27.5 99.5z" />
<glyph unicode="k" horiz-adv-x="964" d="M117 0v1413h227v-815q94 80 179 181.5t149 213.5h239q-63 -123 -139 -228.5t-168 -197.5l334 -567h-254l-248 422q-23 -18 -46 -33.5t-46 -30.5v-358h-227z" />
<glyph unicode="l" horiz-adv-x="477" d="M125 0v1413h227v-1413h-227z" />
<glyph unicode="m" horiz-adv-x="1669" d="M117 0v993h200l13 -102h2q53 59 133 97t170 38q100 0 165.5 -39t100.5 -100q66 63 150 101t184 38q322 0 321 -371v-655h-227v608q0 59 -8 95t-29 61q-18 25 -49 38t-78 13q-59 0 -114.5 -28.5t-102.5 -84.5v-702h-227v602q0 100 -29.5 156.5t-124.5 56.5 q-59 0 -119.5 -32.5t-103.5 -86.5v-696h-227z" />
<glyph unicode="n" horiz-adv-x="1103" d="M117 0v993h198l13 -108h2q63 66 145 103.5t184 37.5q174 0 253 -94t79 -285v-647h-227v610q0 115 -39 161t-131 46q-70 0 -135.5 -32.5t-114.5 -86.5v-698h-227z" />
<glyph unicode="o" horiz-adv-x="1103" d="M82 492v10q0 252 115.5 388t355.5 136q238 0 353.5 -136t115.5 -388v-10q0 -252 -115.5 -388.5t-353.5 -136.5q-240 0 -355.5 136.5t-115.5 388.5zM319 496q0 -174 56.5 -256t177.5 -82t176 82t55 256q0 176 -55 258t-176 82t-177.5 -82t-56.5 -258z" />
<glyph unicode="p" horiz-adv-x="1107" d="M117 -408v1401h192l13 -100h4q53 59 131 96t176 37q193 0 293 -135t100 -379v-10q0 -117 -25.5 -215.5t-79 -169t-133 -110.5t-186.5 -40q-76 0 -144.5 24.5t-113.5 59.5v-459h-227zM344 244q35 -29 88 -49.5t109 -20.5q72 0 120 25.5t76.5 70.5t39.5 104.5t11 125.5 q0 59 -8 116.5t-30.5 101.5t-65.5 70.5t-113 26.5q-68 0 -128 -31.5t-99 -74.5v-465z" />
<glyph unicode="q" horiz-adv-x="1105" d="M82 485v11q0 94 23.5 189t75.5 171t135 123t202 47q90 0 158.5 -32.5t109.5 -82.5l13 82h190v-1401h-227v469q-47 -43 -122 -68.5t-155 -25.5q-100 0 -176 36t-126 103.5t-75.5 164t-25.5 214.5zM319 485q0 -61 10.5 -118.5t36 -101.5t68.5 -69.5t111 -25.5q125 0 217 88 v465q-39 43 -95.5 69.5t-107.5 26.5q-78 0 -125 -31.5t-72.5 -81t-34 -108.5t-8.5 -113z" />
<glyph unicode="r" horiz-adv-x="688" d="M117 0v993h196l17 -137h2q51 68 129 114t188 46q0 -8 -1 -41t-2 -70t-2 -69.5t-1 -38.5q-98 -4 -172 -34t-127 -83v-680h-227z" />
<glyph unicode="s" horiz-adv-x="851" d="M72 725q0 70 28.5 126t78.5 95t121 59.5t157 20.5q70 0 141.5 -12.5t130.5 -34.5l-22 -191q-47 23 -109.5 37.5t-118.5 14.5q-94 0 -135 -30t-41 -81t39 -75.5t113 -47.5l71 -20q135 -39 202 -106.5t67 -200.5q0 -160 -106.5 -236t-295.5 -76q-78 0 -163 15.5t-146 40.5 l20 190q59 -29 136 -45t133 -16q94 0 143 23.5t49 88.5q0 27 -6 45.5t-23.5 32.5t-48 26.5t-79.5 26.5l-72 21q-115 33 -189.5 104.5t-74.5 204.5z" />
<glyph unicode="t" horiz-adv-x="708" d="M33 819v174h147v264l228 33v-297h231l-8 -174h-223v-473q0 -66 9 -104.5t27.5 -59t45 -25.5t61.5 -5q29 0 51.5 4t38.5 8l10 -180q-31 -8 -71.5 -12.5t-69.5 -4.5q-98 0 -161.5 23.5t-100.5 68.5t-52.5 112t-15.5 153v495h-147z" />
<glyph unicode="u" horiz-adv-x="1073" d="M113 477v516h227v-536q0 -86 6 -143.5t26.5 -92.5t59.5 -49t105 -14t104.5 14t59 49t26.5 92.5t6 143.5v536h228v-516q0 -135 -15.5 -231t-61.5 -157.5t-129 -91.5t-218 -30q-133 0 -216 30t-129.5 91.5t-62.5 157.5t-16 231z" />
<glyph unicode="v" horiz-adv-x="931" d="M29 993h239q14 -72 39 -170t53.5 -201.5t56 -200.5t48.5 -167h4l48 168t55.5 201.5t52 202t41.5 167.5h237q-29 -106 -69.5 -245.5t-87 -278.5t-90.5 -265t-76 -204h-234q-33 78 -76 204t-88 265t-86 278.5t-67 245.5z" />
<glyph unicode="w" horiz-adv-x="1476" d="M29 993h237q16 -72 38 -165t46.5 -191t49 -192.5t44.5 -170.5h9q43 156 89 345.5t87 373.5h219q41 -184 88 -373.5t88 -345.5h4q23 78 48.5 174.5t50 193.5t46 189.5t37.5 161.5h238q-33 -111 -73 -245t-83 -269t-83 -260t-72 -219h-219q-23 76 -45.5 162l-45 172 t-45 170t-41.5 158h-6q-20 -74 -42.5 -158t-45 -170t-46 -172t-44.5 -162h-217q-33 94 -74 219t-84 260t-83 269.5t-70 244.5z" />
<glyph unicode="x" horiz-adv-x="964" d="M29 0q74 147 152.5 267t166.5 229q-41 57 -83 121.5t-82 130t-76.5 128t-65.5 117.5h258q37 -86 82 -171t92 -150h6q47 66 95.5 150.5t87.5 170.5h239q-66 -129 -141.5 -254t-157.5 -241q88 -111 168 -231t166 -267h-272q-41 80 -86.5 160t-102.5 159h-4 q-59 -80 -103 -159.5t-81 -159.5h-258z" />
<glyph unicode="y" horiz-adv-x="960" d="M33 993h239q47 -209 101.5 -400.5t111.5 -338.5h4q53 154 100.5 348.5t88.5 390.5h237q-29 -129 -65.5 -268t-77.5 -272.5t-84 -254t-84 -210.5q-53 -119 -103 -201t-102.5 -132t-110 -72.5t-124.5 -22.5q-78 0 -123 12l10 188q39 -14 99 -14q59 0 117.5 56.5 t109.5 185.5q-104 211 -188.5 461.5t-155.5 543.5z" />
<glyph unicode="z" horiz-adv-x="878" d="M55 125l461 694h-436v174h713v-139l-469 -680h489l-39 -174h-694z" />
<glyph unicode="{" horiz-adv-x="755" d="M113 528v142q72 12 105.5 51t35.5 110l4 324q0 135 70.5 214t212.5 79h129v-174h-82q-68 0 -92.5 -27.5t-24.5 -107.5l-2 -256q0 -61 -9 -108.5t-28.5 -81.5t-52.5 -56.5t-80 -36.5v-4q96 -25 132 -92.5t38 -188.5l2 -254q0 -82 24.5 -109.5t92.5 -27.5h82v-172h-129 q-141 0 -211 79t-72 214l-4 324q-2 135 -141 159z" />
<glyph unicode="|" horiz-adv-x="550" d="M168 -33v1479h215v-1479h-215z" />
<glyph unicode="}" horiz-adv-x="757" d="M72 -76h82q68 0 92 28t24 109l2 254q2 121 38 188.5t132 92.5v4q-96 27 -132 92.5t-38 190.5l-2 256q0 80 -24.5 107.5t-91.5 27.5h-82v174h129q141 0 211.5 -79t70.5 -214l4 -324q2 -72 36 -110.5t106 -50.5v-142q-139 -25 -142 -159l-4 -324q-2 -135 -71.5 -214 t-210.5 -79h-129v172z" />
<glyph unicode="~" d="M41 539q25 49 55.5 92t69.5 76.5t86 53t106 19.5q53 0 103.5 -19.5t101.5 -53.5l55 -37q31 -20 64 -34.5t66 -14.5q53 0 94 39.5t76 105.5l145 -113q-53 -102 -127 -168.5t-178 -66.5q-59 0 -108.5 16.5t-96.5 46.5l-53 35q-33 23 -65 36t-64 13q-53 0 -95.5 -36.5 t-82.5 -106.5z" />
<glyph unicode="&#xa1;" horiz-adv-x="544" d="M143 872v19q0 63 28 99t101 36q74 0 100.5 -36t26.5 -99v-19q0 -61 -26.5 -98t-100.5 -37t-101.5 37t-27.5 98zM156 129l24 446h182l25 -446v-516h-231v516z" />
<glyph unicode="&#xa2;" d="M152 672v10q0 125 30.5 219t86 158.5t131 100.5t165.5 46v207h144v-205q63 -6 119.5 -21.5t97.5 -37.5l-19 -201q-35 23 -89 40.5t-109 21.5v-660q49 4 100 15.5t102 33.5l17 -190q-47 -23 -104.5 -35t-114.5 -18v-189h-144v189q-203 18 -299 139q-55 66 -84.5 161 t-29.5 216zM389 676q0 -262 176 -314v635q-176 -55 -176 -315v-6z" />
<glyph unicode="&#xa3;" d="M113 621v192h155v133q0 467 445 467q59 0 127.5 -11t136.5 -34l-33 -219q-45 16 -97 26.5t-102 10.5q-127 0 -181 -61.5t-54 -202.5v-109h303v-192h-303v-132q0 -100 -27.5 -175.5t-83.5 -110.5v-4h549l-18 -199h-801l-8 197q76 35 111.5 100t35.5 156v168h-155z" />
<glyph unicode="&#xa4;" horiz-adv-x="1093" d="M45 209l162 162q-59 94 -60 213q0 111 58 207l-160 161l131 125l156 -157q96 61 215 61t215 -61l156 157l131 -125l-160 -161q57 -96 57 -209q0 -121 -59 -211l162 -162l-131 -127l-160 160q-94 -59 -209 -60q-121 0 -215 60l-158 -160zM336 584q0 -98 62.5 -155.5 t150.5 -57.5q43 0 81 15t66.5 43t45 67t16.5 86q0 96 -61.5 153.5t-149.5 57.5q-86 0 -148.5 -57.5t-62.5 -151.5z" />
<glyph unicode="&#xa5;" d="M43 1380h256q61 -195 121.5 -370.5t132.5 -325.5h8q72 150 132.5 326t121.5 370h256q-63 -190 -141 -380.5t-164 -368.5h158l-11 -172h-235v-109h235v-172h-235v-178h-244v178h-237v172h237v109h-237l-13 172h160q-86 178 -164 368.5t-137 380.5z" />
<glyph unicode="&#xa6;" horiz-adv-x="546" d="M168 -33v576h211v-576h-211zM168 870v576h211v-576h-211z" />
<glyph unicode="&#xa7;" horiz-adv-x="940" d="M106 709q0 66 34 122t102 97q-57 37 -88 93t-31 126q0 119 95 192.5t269 73.5q129 0 248 -47l-8 -170q-53 20 -110.5 33.5t-110.5 13.5q-90 0 -130 -26.5t-40 -69.5t36 -73t130 -66l114 -45q111 -43 164.5 -105.5t53.5 -159.5q0 -66 -34 -125t-93 -104q43 -29 72.5 -79 t29.5 -116q0 -154 -99.5 -230.5t-279.5 -76.5q-66 0 -150.5 15.5t-152.5 44.5l6 176q80 -29 156 -45.5t129 -16.5q98 0 144 30t46 83q0 45 -33.5 73.5t-117.5 63.5l-133 58q-94 41 -156 100t-62 160zM301 748q0 -53 32 -82t97 -60l150 -67q63 59 63 127q0 47 -30.5 81.5 t-108.5 65.5l-131 51q-33 -18 -52.5 -49t-19.5 -67z" />
<glyph unicode="&#xa8;" horiz-adv-x="749" d="M63 1311v14q0 129 127 129q66 0 95.5 -32.5t29.5 -96.5v-14q0 -66 -29.5 -96.5t-95.5 -30.5q-127 0 -127 127zM432 1311v14q0 129 127 129t127 -129v-14q0 -127 -127 -127t-127 127z" />
<glyph unicode="&#xa9;" horiz-adv-x="1630" d="M94 686q0 164 52.5 298t146.5 229.5t227 147.5t295 52t295 -56.5t227.5 -154.5t146.5 -230t52 -286t-52 -286t-146.5 -230t-227.5 -154.5t-295 -56.5t-295 52t-227 147.5t-146.5 229.5t-52.5 298zM295 686q0 -111 33.5 -209t99.5 -172t163 -117t224 -43t224.5 43t163 117 t99 172t33.5 209t-33.5 209t-99 172t-163 117t-224.5 43t-224 -43t-163 -117t-99.5 -172t-33.5 -209zM504 686q0 178 85 276.5t249 98.5q47 0 92 -10.5t80 -26.5l-15 -150q-27 12 -64.5 23.5t-78.5 11.5q-82 0 -125 -53t-43 -170t40 -170t126 -53q37 0 77 7t74 24l11 -148 q-35 -14 -84 -24.5t-92 -10.5q-170 0 -251 94.5t-81 280.5z" />
<glyph unicode="&#xaa;" horiz-adv-x="714" d="M45 819q0 66 28.5 112t78 75.5t116 43t144.5 13.5h24v18q0 47 -24.5 67.5t-83.5 20.5q-47 0 -104.5 -14t-104.5 -37l-23 146q51 23 122 38t132 15q125 0 193.5 -53.5t68.5 -192.5v-297q0 -25 12.5 -33t37.5 -8v-112q-37 -12 -87 -13q-94 0 -122 68h-4 q-35 -35 -82.5 -51.5t-102.5 -16.5q-94 0 -156.5 53.5t-62.5 157.5zM227 827q0 -37 23.5 -59.5t64.5 -22.5q72 0 121 50v145q-35 0 -71.5 -3t-67.5 -14.5t-50.5 -34t-19.5 -61.5z" />
<glyph unicode="&#xab;" horiz-adv-x="1183" d="M82 498l354 497l168 -104l-280 -393l280 -392l-168 -106zM571 498l355 497l168 -104l-283 -393l281 -392l-166 -106z" />
<glyph unicode="&#xac;" d="M143 440v201h826v-494h-207v293h-619z" />
<glyph unicode="&#xad;" horiz-adv-x="593" d="M82 403v203h430v-203h-430z" />
<glyph unicode="&#xae;" horiz-adv-x="1630" d="M94 686q0 164 52.5 298t146.5 229.5t227 147.5t295 52t295 -56.5t227.5 -154.5t146.5 -230t52 -286t-52 -286t-146.5 -230t-227.5 -154.5t-295 -56.5t-295 52t-227 147.5t-146.5 229.5t-52.5 298zM295 686q0 -111 33.5 -209t99.5 -172t163 -117t224 -43t224.5 43t163 117 t99 172t33.5 209t-33.5 209t-99 172t-163 117t-224.5 43t-224 -43t-163 -117t-99.5 -172t-33.5 -209zM580 324v731h184q96 0 158.5 -15.5t98.5 -46t50 -75t14 -99.5q0 -80 -31.5 -136t-90.5 -83l137 -276h-168l-111 249q-10 -2 -22.5 -2h-24.5h-33v-247h-161zM741 713h58 q63 0 89.5 19.5t26.5 84.5q0 53 -25.5 74.5t-90.5 21.5h-58v-200z" />
<glyph unicode="&#xaf;" horiz-adv-x="749" d="M76 1217v155h596v-155h-596z" />
<glyph unicode="&#xb0;" horiz-adv-x="659" d="M47 1192q0 57 18.5 108.5t55.5 90.5t89 62.5t120 23.5t120 -23.5t87.5 -62.5t54 -90.5t18.5 -108.5q0 -61 -19.5 -112.5t-56 -89.5t-89 -58.5t-115.5 -20.5t-115.5 20.5t-89.5 58.5t-57.5 89t-20.5 113zM221 1192q0 -57 27.5 -90t81.5 -33q53 0 80.5 33t27.5 90t-27.5 92 t-80.5 35t-81 -35t-28 -92z" />
<glyph unicode="&#xb1;" d="M143 0v195h824v-195h-824zM143 639v201h303v301h218v-301h303v-201h-303v-301h-218v301h-303z" />
<glyph unicode="&#xb2;" horiz-adv-x="681" d="M82 956l104 97q37 33 75 68.5t71 74.5t53.5 81t20.5 87q0 47 -26 66.5t-77 19.5q-49 0 -97 -14.5t-97 -36.5l-21 151q53 25 116.5 42.5t131.5 17.5q117 0 186.5 -57.5t69.5 -161.5q0 -47 -12.5 -89t-39 -84t-67.5 -87.5t-98 -96.5l-66 -59h287v-150h-502z" />
<glyph unicode="&#xb3;" horiz-adv-x="681" d="M76 846l18 147q47 -18 95.5 -26.5t89.5 -8.5q78 0 109.5 26t31.5 73q0 49 -33 72.5t-108 23.5h-66v131h57q63 0 100.5 22.5t37.5 73.5q0 39 -29 57.5t-82 18.5q-47 0 -89 -9t-79 -24l-16 144q43 16 99 29.5t114 13.5q127 0 194.5 -51.5t67.5 -149.5q0 -57 -25.5 -103 t-79.5 -73q55 -20 88 -67.5t33 -114.5q0 -121 -81 -183.5t-222 -62.5q-53 0 -113.5 11t-111.5 30z" />
<glyph unicode="&#xb4;" horiz-adv-x="749" d="M100 1255l437 263l112 -177l-471 -227z" />
<glyph unicode="&#xb6;" horiz-adv-x="1083" d="M53 1059q0 80 28 145.5t77 111.5t117.5 71.5t150.5 25.5h532v-1614h-186v1461h-190v-1461h-187v910q-154 18 -248 111t-94 239z" />
<glyph unicode="&#xb7;" horiz-adv-x="481" d="M96 524v19q0 68 35 104.5t111 36.5q74 0 108.5 -37t34.5 -104v-19q0 -68 -35 -105.5t-108 -37.5q-76 0 -111 38t-35 105z" />
<glyph unicode="&#xb8;" horiz-adv-x="749" d="M145 -481l35 121q39 -14 80 -22.5t72 -8.5q59 0 83.5 19.5t24.5 54.5q0 37 -27.5 56t-93.5 19q-25 0 -46 -2t-44 -6l-16 19l59 241l140 -16l-25 -117q104 -2 159.5 -47t55.5 -137q0 -106 -68.5 -161.5t-185.5 -55.5q-53 0 -106.5 11t-96.5 32z" />
<glyph unicode="&#xb9;" horiz-adv-x="681" d="M68 1450l249 139h142v-618h147v-146h-497v146h174v415l-164 -92z" />
<glyph unicode="&#xba;" horiz-adv-x="757" d="M57 956v11q0 166 80 258t242 92t241.5 -92t79.5 -258v-11q0 -166 -79.5 -257t-241.5 -91t-242 91.5t-80 256.5zM240 961q0 -111 34.5 -157t104.5 -46t104.5 46t34.5 157q0 113 -34.5 158.5t-104.5 45.5t-104.5 -46t-34.5 -158z" />
<glyph unicode="&#xbb;" horiz-adv-x="1181" d="M90 106l281 392l-281 393l168 104l352 -497l-352 -498zM580 106l280 392l-280 393l165 104l355 -497l-355 -498z" />
<glyph unicode="&#xbc;" horiz-adv-x="1703" d="M86 1253l250 140h141v-619h148v-145h-498v145h174v416l-164 -92zM414 76l774 1366l164 -90l-774 -1372zM977 162v119q33 51 73 111.5t83 124t85 123.5t78 112h203v-447h103v-143h-103v-174h-176v174h-346zM1151 305h172v258q-39 -53 -82 -119.5t-90 -138.5z" />
<glyph unicode="&#xbd;" horiz-adv-x="1703" d="M86 1253l250 140h141v-619h148v-145h-498v145h174v416l-164 -92zM414 76l774 1366l164 -90l-774 -1372zM1106 119l104 96q37 33 75 68.5t71 74.5t53.5 81t20.5 87q0 47 -26 66.5t-77 19.5q-49 0 -97 -14t-97 -37l-21 152q53 25 116.5 42t131.5 17q117 0 186.5 -57.5 t69.5 -161.5q0 -47 -12.5 -89t-39 -84t-67.5 -87t-98 -96l-66 -60h287v-149h-502z" />
<glyph unicode="&#xbe;" horiz-adv-x="1703" d="M123 649l18 148q47 -18 95.5 -26.5t89.5 -8.5q78 0 109.5 25.5t31.5 72.5q0 49 -33 72.5t-108 23.5h-66v131h57q63 0 100.5 23t37.5 74q0 39 -29 57.5t-82 18.5q-47 0 -89 -9.5t-79 -23.5l-16 143q43 16 99 29.5t114 13.5q127 0 194.5 -51t67.5 -150q0 -57 -25.5 -103 t-79.5 -73q55 -20 88 -67t33 -115q0 -121 -81 -183.5t-222 -62.5q-53 0 -113.5 11.5t-111.5 29.5zM414 76l774 1366l164 -90l-774 -1372zM977 162v119q33 51 73 111.5t83 124t85 123.5t78 112h203v-447h103v-143h-103v-174h-176v174h-346zM1151 305h172v258 q-39 -53 -82 -119.5t-90 -138.5z" />
<glyph unicode="&#xbf;" horiz-adv-x="921" d="M66 -39q0 186 94 284.5t270 114.5l21 234h194l25 -385l-56 -4q-156 -14 -228.5 -64.5t-72.5 -167.5q0 -100 52.5 -143t162.5 -43q72 0 151 18.5t144 47.5l17 -205q-76 -29 -166 -48.5t-191 -19.5q-90 0 -165.5 20.5t-132 65.5t-88 118t-31.5 177zM408 868v17 q0 66 30.5 103.5t104.5 37.5t104.5 -38t30.5 -103v-17q0 -66 -31 -101.5t-104 -35.5q-74 0 -104.5 36t-30.5 101z" />
<glyph unicode="&#xc0;" horiz-adv-x="1226" d="M41 0q51 184 109.5 374.5t117 371t115.5 343t106 291.5h248q49 -129 105.5 -291.5t116 -343t117 -371t110.5 -374.5h-254q-18 68 -35.5 138.5t-36.5 142.5q-49 -8 -111.5 -12.5t-125.5 -4.5q-66 0 -131.5 4t-124.5 13q-20 -72 -39 -142.5t-35 -138.5h-252zM41 0z M305 1704l111 178l436 -264l-78 -139zM426 506q86 -12 186 -12q47 0 94.5 4t92.5 8q-43 145 -88 290.5t-95 288.5h-8q-47 -143 -93 -288.5t-89 -290.5z" />
<glyph unicode="&#xc1;" horiz-adv-x="1226" d="M41 0q51 184 109.5 374.5t117 371t115.5 343t106 291.5h248q49 -129 105.5 -291.5t116 -343t117 -371t110.5 -374.5h-254q-18 68 -35.5 138.5t-36.5 142.5q-49 -8 -111.5 -12.5t-125.5 -4.5q-66 0 -131.5 4t-124.5 13q-20 -72 -39 -142.5t-35 -138.5h-252zM41 0z M393 1618l435 264l112 -178l-469 -225zM426 506q86 -12 186 -12q47 0 94.5 4t92.5 8q-43 145 -88 290.5t-95 288.5h-8q-47 -143 -93 -288.5t-89 -290.5z" />
<glyph unicode="&#xc2;" horiz-adv-x="1226" d="M41 0q51 184 109.5 374.5t117 371t115.5 343t106 291.5h248q49 -129 105.5 -291.5t116 -343t117 -371t110.5 -374.5h-254q-18 68 -35.5 138.5t-36.5 142.5q-49 -8 -111.5 -12.5t-125.5 -4.5q-66 0 -131.5 4t-124.5 13q-20 -72 -39 -142.5t-35 -138.5h-252zM41 0z M279 1606l264 276h141l263 -276l-113 -101l-213 201h-16l-215 -201zM426 506q86 -12 186 -12q47 0 94.5 4t92.5 8q-43 145 -88 290.5t-95 288.5h-8q-47 -143 -93 -288.5t-89 -290.5z" />
<glyph unicode="&#xc3;" horiz-adv-x="1226" d="M41 0q51 184 109.5 374.5t117 371t115.5 343t106 291.5h248q49 -129 105.5 -291.5t116 -343t117 -371t110.5 -374.5h-254q-18 68 -35.5 138.5t-36.5 142.5q-49 -8 -111.5 -12.5t-125.5 -4.5q-66 0 -131.5 4t-124.5 13q-20 -72 -39 -142.5t-35 -138.5h-252zM41 0z M261 1649q47 86 103 131t128 45q43 0 74.5 -16.5t61.5 -37t58.5 -37t63.5 -16.5t63.5 25.5t49.5 66.5l106 -110q-35 -72 -92 -113t-129 -41q-45 0 -80 15.5t-63.5 34t-55 34t-55.5 15.5q-37 0 -69.5 -29t-61.5 -76zM426 506q86 -12 186 -12q47 0 94.5 4t92.5 8 q-43 145 -88 290.5t-95 288.5h-8q-47 -143 -93 -288.5t-89 -290.5z" />
<glyph unicode="&#xc4;" horiz-adv-x="1226" d="M41 0q51 184 109.5 374.5t117 371t115.5 343t106 291.5h248q49 -129 105.5 -291.5t116 -343t117 -371t110.5 -374.5h-254q-18 68 -35.5 138.5t-36.5 142.5q-49 -8 -111.5 -12.5t-125.5 -4.5q-66 0 -131.5 4t-124.5 13q-20 -72 -39 -142.5t-35 -138.5h-252zM41 0z M301 1675v13q0 129 127 129q66 0 95.5 -32t29.5 -97v-13q0 -66 -29.5 -97.5t-95.5 -31.5q-127 0 -127 129zM426 506q86 -12 186 -12q47 0 94.5 4t92.5 8q-43 145 -88 290.5t-95 288.5h-8q-47 -143 -93 -288.5t-89 -290.5zM670 1675v13q0 129 127 129t127 -129v-13 q0 -129 -127 -129t-127 129z" />
<glyph unicode="&#xc5;" horiz-adv-x="1226" d="M41 0q51 184 109.5 374.5t117 371t115.5 343t106 291.5h248q49 -129 105.5 -291.5t116 -343t117 -371t110.5 -374.5h-254q-18 68 -35.5 138.5t-36.5 142.5q-49 -8 -111.5 -12.5t-125.5 -4.5q-66 0 -131.5 4t-124.5 13q-20 -72 -39 -142.5t-35 -138.5h-252zM41 0z M402 1704q0 45 16.5 84t46 67.5t68.5 45t82 16.5t82 -16.5t66.5 -45t44 -67.5t16.5 -84q0 -43 -16.5 -82t-45 -68.5t-67.5 -46t-84 -16.5q-43 0 -81 16.5t-66.5 46t-45 68.5t-16.5 82zM426 506q86 -12 186 -12q47 0 94.5 4t92.5 8q-43 145 -88 290.5t-95 288.5h-8 q-47 -143 -93 -288.5t-89 -290.5zM539 1704q0 -33 20.5 -54.5t51.5 -21.5q33 0 54.5 21.5t21.5 54.5t-20.5 54.5t-53.5 21.5t-53.5 -21.5t-20.5 -54.5z" />
<glyph unicode="&#xc6;" horiz-adv-x="1765" d="M45 0q41 92 96.5 212t118 251t128 266t128 257t115.5 224.5t90 169.5h952l-26 -223h-545v-342h487l-24 -223h-463v-369h559l-23 -223h-782v279q-41 -4 -83 -6.5t-89 -2.5q-59 0 -122.5 3t-125.5 8q-35 -76 -62.5 -139.5t-58.5 -141.5h-270zM537 506q41 -4 83 -6t85 -2 q39 0 76.5 2t74.5 4v657h-12q-33 -63 -74 -149t-83 -176.5t-81 -177.5t-69 -152z" />
<glyph unicode="&#xc7;" horiz-adv-x="1128" d="M96 682v14q0 360 164 538.5t463 178.5q86 0 171 -18.5t153 -53.5l-27 -227q-55 29 -129 47.5t-148 18.5q-205 0 -297 -132.5t-92 -359.5v-10q0 -109 20.5 -198t65.5 -152.5t117 -98t174 -34.5q72 0 151 16t146 45l19 -217q-72 -35 -163 -53.5t-173 -18.5h-4l-19 -90 q104 -2 159.5 -47t55.5 -137q0 -106 -68.5 -161.5t-185.5 -55.5q-53 0 -106.5 11t-96.5 32l35 121q39 -14 80 -22.5t72 -8.5q59 0 83.5 19.5t24.5 54.5q0 37 -27.5 56t-92.5 19q-25 0 -46.5 -2t-44.5 -6l-16 19l51 211q-244 39 -356.5 222t-112.5 480z" />
<glyph unicode="&#xc8;" horiz-adv-x="1081" d="M156 0v1380h833l-26 -223h-562v-342h504l-24 -223h-480v-369h576l-23 -223h-798zM156 0zM278 1704l111 178l436 -264l-78 -139z" />
<glyph unicode="&#xc9;" horiz-adv-x="1081" d="M156 0v1380h833l-26 -223h-562v-342h504l-24 -223h-480v-369h576l-23 -223h-798zM156 0zM385 1618l435 264l112 -178l-469 -225z" />
<glyph unicode="&#xca;" horiz-adv-x="1081" d="M156 0v1380h833l-26 -223h-562v-342h504l-24 -223h-480v-369h576l-23 -223h-798zM156 0zM258 1606l264 276h141l263 -276l-113 -101l-213 201h-16l-215 -201z" />
<glyph unicode="&#xcb;" horiz-adv-x="1081" d="M156 0v1380h833l-26 -223h-562v-342h504l-24 -223h-480v-369h576l-23 -223h-798zM156 0zM274 1675v13q0 129 127 129q66 0 95.5 -32t29.5 -97v-13q0 -66 -29.5 -97.5t-95.5 -31.5q-127 0 -127 129zM643 1675v13q0 129 127 129t127 -129v-13q0 -129 -127 -129t-127 129z " />
<glyph unicode="&#xcc;" horiz-adv-x="569" d="M-27 1704l111 178l436 -264l-78 -139zM0 0zM162 0v1380h246v-1380h-246z" />
<glyph unicode="&#xcd;" horiz-adv-x="569" d="M61 0zM61 1618l435 264l112 -178l-469 -225zM162 0v1380h246v-1380h-246z" />
<glyph unicode="&#xce;" horiz-adv-x="569" d="M-47 1606l264 276h141l263 -276l-113 -101l-213 201h-16l-215 -201zM0 0zM162 0v1380h246v-1380h-246z" />
<glyph unicode="&#xcf;" horiz-adv-x="569" d="M-25 1675v13q0 129 127 129q66 0 95.5 -32t29.5 -97v-13q0 -66 -29.5 -97.5t-95.5 -31.5q-127 0 -127 129zM0 0zM162 0v1380h246v-1380h-246zM344 1675v13q0 129 127 129t127 -129v-13q0 -129 -127 -129t-127 129z" />
<glyph unicode="&#xd0;" horiz-adv-x="1304" d="M14 592v205h142v583h346q178 0 311 -31.5t220 -109.5t131 -210t44 -331q0 -201 -50 -349t-161 -234q-86 -68 -213 -91.5t-303 -23.5h-325v592h-142zM401 223h88q137 0 226.5 22.5t141.5 77t72.5 146.5t20.5 231q0 113 -15 199t-59.5 143.5t-125 86t-209.5 28.5h-140v-360 h232v-205h-232v-369z" />
<glyph unicode="&#xd1;" horiz-adv-x="1394" d="M156 0v1380h209l647 -927v927h227v-1380h-197l-659 944v-944h-227zM156 0zM351 1649q47 86 103 131t128 45q43 0 74.5 -16.5t61.5 -37t58.5 -37t63.5 -16.5t63.5 25.5t49.5 66.5l106 -110q-35 -72 -92 -113t-129 -41q-45 0 -80 15.5t-63.5 34t-55 34t-55.5 15.5 q-37 0 -69.5 -29t-61.5 -76z" />
<glyph unicode="&#xd2;" horiz-adv-x="1306" d="M96 0zM96 684v12q0 158 30 290t95.5 227.5t172 147.5t259.5 52q154 0 260.5 -52t172 -147.5t95 -227.5t29.5 -290v-12q0 -158 -29.5 -290t-95 -227t-172 -147.5t-260.5 -52.5t-260 52.5t-171.5 147.5t-95.5 227t-30 290zM356 690q0 -242 65.5 -368.5t231.5 -126.5 q164 0 230.5 125.5t66.5 369.5q0 242 -66.5 369t-230.5 127q-166 0 -231.5 -127t-65.5 -369zM364 1704l111 178l436 -264l-78 -139z" />
<glyph unicode="&#xd3;" horiz-adv-x="1306" d="M96 0zM96 684v12q0 158 30 290t95.5 227.5t172 147.5t259.5 52q154 0 260.5 -52t172 -147.5t95 -227.5t29.5 -290v-12q0 -158 -29.5 -290t-95 -227t-172 -147.5t-260.5 -52.5t-260 52.5t-171.5 147.5t-95.5 227t-30 290zM356 690q0 -242 65.5 -368.5t231.5 -126.5 q164 0 230.5 125.5t66.5 369.5q0 242 -66.5 369t-230.5 127q-166 0 -231.5 -127t-65.5 -369zM424 1618l435 264l112 -178l-469 -225z" />
<glyph unicode="&#xd4;" horiz-adv-x="1306" d="M96 0zM96 684v12q0 158 30 290t95.5 227.5t172 147.5t259.5 52q154 0 260.5 -52t172 -147.5t95 -227.5t29.5 -290v-12q0 -158 -29.5 -290t-95 -227t-172 -147.5t-260.5 -52.5t-260 52.5t-171.5 147.5t-95.5 227t-30 290zM324 1606l264 276h141l263 -276l-113 -101 l-213 201h-16l-215 -201zM356 690q0 -242 65.5 -368.5t231.5 -126.5q164 0 230.5 125.5t66.5 369.5q0 242 -66.5 369t-230.5 127q-166 0 -231.5 -127t-65.5 -369z" />
<glyph unicode="&#xd5;" horiz-adv-x="1306" d="M96 0zM96 684v12q0 158 30 290t95.5 227.5t172 147.5t259.5 52q154 0 260.5 -52t172 -147.5t95 -227.5t29.5 -290v-12q0 -158 -29.5 -290t-95 -227t-172 -147.5t-260.5 -52.5t-260 52.5t-171.5 147.5t-95.5 227t-30 290zM308 1649q47 86 103 131t128 45q43 0 74.5 -16.5 t61.5 -37t58.5 -37t63.5 -16.5t63.5 25.5t49.5 66.5l106 -110q-35 -72 -92 -113t-129 -41q-45 0 -80 15.5t-63.5 34t-55 34t-55.5 15.5q-37 0 -69.5 -29t-61.5 -76zM356 690q0 -242 65.5 -368.5t231.5 -126.5q164 0 230.5 125.5t66.5 369.5q0 242 -66.5 369t-230.5 127 q-166 0 -231.5 -127t-65.5 -369z" />
<glyph unicode="&#xd6;" horiz-adv-x="1306" d="M96 0zM96 684v12q0 158 30 290t95.5 227.5t172 147.5t259.5 52q154 0 260.5 -52t172 -147.5t95 -227.5t29.5 -290v-12q0 -158 -29.5 -290t-95 -227t-172 -147.5t-260.5 -52.5t-260 52.5t-171.5 147.5t-95.5 227t-30 290zM346 1675v13q0 129 127 129q66 0 95.5 -32 t29.5 -97v-13q0 -66 -29.5 -97.5t-95.5 -31.5q-127 0 -127 129zM356 690q0 -242 65.5 -368.5t231.5 -126.5q164 0 230.5 125.5t66.5 369.5q0 242 -66.5 369t-230.5 127q-166 0 -231.5 -127t-65.5 -369zM715 1675v13q0 129 127 129t127 -129v-13q0 -129 -127 -129t-127 129z " />
<glyph unicode="&#xd7;" d="M147 799l144 143l266 -268l266 268l142 -139l-269 -268l246 -246l-141 -142l-246 246l-246 -246l-139 142l246 246z" />
<glyph unicode="&#xd8;" horiz-adv-x="1306" d="M96 684v12q0 158 30 290t95.5 227.5t172 147.5t259.5 52q82 0 149.5 -15.5t123.5 -43.5l96 188l125 -59l-111 -213q92 -94 133 -240.5t41 -333.5v-12q0 -158 -29.5 -290t-95 -227t-172 -147.5t-260.5 -52.5q-152 0 -262 53l-98 -192l-119 68l105 202q-98 96 -140.5 245 t-42.5 341zM356 690q0 -111 11.5 -194.5t40.5 -147.5l407 791q-66 47 -162 47q-166 0 -231.5 -127t-65.5 -369zM502 233q59 -39 151 -38q164 0 230.5 125.5t66.5 369.5q0 203 -45 324z" />
<glyph unicode="&#xd9;" horiz-adv-x="1314" d="M150 0zM150 514v866h245v-850q0 -176 57.5 -255.5t204.5 -79.5t205 79.5t58 255.5v850h245v-866q0 -141 -27.5 -244.5t-89 -171t-157.5 -99.5t-234 -32q-137 0 -233 32t-157.5 99.5t-89 171t-27.5 244.5zM362 1704l111 178l436 -264l-78 -139z" />
<glyph unicode="&#xda;" horiz-adv-x="1314" d="M150 0zM150 514v866h245v-850q0 -176 57.5 -255.5t204.5 -79.5t205 79.5t58 255.5v850h245v-866q0 -141 -27.5 -244.5t-89 -171t-157.5 -99.5t-234 -32q-137 0 -233 32t-157.5 99.5t-89 171t-27.5 244.5zM434 1618l435 264l112 -178l-469 -225z" />
<glyph unicode="&#xdb;" horiz-adv-x="1314" d="M150 0zM150 514v866h245v-850q0 -176 57.5 -255.5t204.5 -79.5t205 79.5t58 255.5v850h245v-866q0 -141 -27.5 -244.5t-89 -171t-157.5 -99.5t-234 -32q-137 0 -233 32t-157.5 99.5t-89 171t-27.5 244.5zM328 1606l264 276h141l263 -276l-113 -101l-213 201h-16 l-215 -201z" />
<glyph unicode="&#xdc;" horiz-adv-x="1314" d="M150 0zM150 514v866h245v-850q0 -176 57.5 -255.5t204.5 -79.5t205 79.5t58 255.5v850h245v-866q0 -141 -27.5 -244.5t-89 -171t-157.5 -99.5t-234 -32q-137 0 -233 32t-157.5 99.5t-89 171t-27.5 244.5zM348 1675v13q0 129 127 129q66 0 95.5 -32t29.5 -97v-13 q0 -66 -29.5 -97.5t-95.5 -31.5q-127 0 -127 129zM717 1675v13q0 129 127 129t127 -129v-13q0 -129 -127 -129t-127 129z" />
<glyph unicode="&#xdd;" horiz-adv-x="1122" d="M41 0zM41 1380h256q61 -195 124.5 -360.5t135.5 -314.5h8q74 150 136.5 315.5t123.5 359.5h256q-78 -238 -183 -475t-216 -446v-459h-244v459q-113 207 -217 446.5t-180 474.5zM358 1618l435 264l112 -178l-469 -225z" />
<glyph unicode="&#xde;" horiz-adv-x="1126" d="M156 0v1380h245v-219h82q123 0 227.5 -17.5t179.5 -66.5t117 -136t42 -226q0 -236 -126 -345.5t-374 -109.5h-148v-260h-245zM401 483h76q74 0 131.5 5.5t98.5 28t62.5 68.5t21.5 130q0 123 -66 173t-207 50h-117v-455z" />
<glyph unicode="&#xdf;" horiz-adv-x="1142" d="M121 -299v1677q96 33 201.5 50.5t209.5 17.5q94 0 178.5 -21.5t148 -66.5t99 -114.5t35.5 -164.5q0 -49 -12 -98t-34.5 -92t-56.5 -77t-79 -50v-8q63 -16 112.5 -51t82 -81.5t49 -101.5t16.5 -110q0 -111 -38 -194t-104.5 -138t-157.5 -83t-198 -28q-25 0 -53 2t-57 6 l10 201q45 -6 88 -6q123 0 198 60.5t75 177.5q0 63 -24 107t-64.5 71.5t-99 40t-128.5 12.5v188q117 4 177.5 55.5t60.5 168.5q0 98 -60.5 145t-165.5 47q-51 0 -98 -8t-84 -21v-1513h-227z" />
<glyph unicode="&#xe0;" horiz-adv-x="1028" d="M70 0zM70 268q0 176 136 271.5t421 95.5h45v45q0 90 -51.5 124t-155.5 34q-72 0 -150.5 -18.5t-146.5 -51.5l-31 184q86 35 183.5 54.5t189.5 19.5t163.5 -18.5t122 -61.5t77 -111.5t26.5 -168.5v-482q0 -41 12.5 -57t57.5 -16v-127q-20 -6 -54 -11.5t-69 -5.5 q-61 0 -103.5 26.5t-58.5 88.5q-111 -115 -303 -115q-63 0 -119.5 19.5t-99.5 57.5t-67.5 94.5t-24.5 129.5zM229 1341l111 177l436 -263l-78 -141zM307 291q0 -59 36 -99t114 -40q63 0 120.5 23.5t94.5 62.5v239h-41q-61 0 -119.5 -8t-104 -28.5t-73 -56.5t-27.5 -93z" />
<glyph unicode="&#xe1;" horiz-adv-x="1028" d="M70 0zM70 268q0 176 136 271.5t421 95.5h45v45q0 90 -51.5 124t-155.5 34q-72 0 -150.5 -18.5t-146.5 -51.5l-31 184q86 35 183.5 54.5t189.5 19.5t163.5 -18.5t122 -61.5t77 -111.5t26.5 -168.5v-482q0 -41 12.5 -57t57.5 -16v-127q-20 -6 -54 -11.5t-69 -5.5 q-61 0 -103.5 26.5t-58.5 88.5q-111 -115 -303 -115q-63 0 -119.5 19.5t-99.5 57.5t-67.5 94.5t-24.5 129.5zM299 1255l437 263l112 -177l-471 -227zM307 291q0 -59 36 -99t114 -40q63 0 120.5 23.5t94.5 62.5v239h-41q-61 0 -119.5 -8t-104 -28.5t-73 -56.5t-27.5 -93z" />
<glyph unicode="&#xe2;" horiz-adv-x="1028" d="M70 0zM70 268q0 176 136 271.5t421 95.5h45v45q0 90 -51.5 124t-155.5 34q-72 0 -150.5 -18.5t-146.5 -51.5l-31 184q86 35 183.5 54.5t189.5 19.5t163.5 -18.5t122 -61.5t77 -111.5t26.5 -168.5v-482q0 -41 12.5 -57t57.5 -16v-127q-20 -6 -54 -11.5t-69 -5.5 q-61 0 -103.5 26.5t-58.5 88.5q-111 -115 -303 -115q-63 0 -119.5 19.5t-99.5 57.5t-67.5 94.5t-24.5 129.5zM186 1241l264 279h141l263 -279l-113 -100l-213 200h-16l-215 -200zM307 291q0 -59 36 -99t114 -40q63 0 120.5 23.5t94.5 62.5v239h-41q-61 0 -119.5 -8 t-104 -28.5t-73 -56.5t-27.5 -93z" />
<glyph unicode="&#xe3;" horiz-adv-x="1028" d="M70 0zM70 268q0 176 136 271.5t421 95.5h45v45q0 90 -51.5 124t-155.5 34q-72 0 -150.5 -18.5t-146.5 -51.5l-31 184q86 35 183.5 54.5t189.5 19.5t163.5 -18.5t122 -61.5t77 -111.5t26.5 -168.5v-482q0 -41 12.5 -57t57.5 -16v-127q-20 -6 -54 -11.5t-69 -5.5 q-61 0 -103.5 26.5t-58.5 88.5q-111 -115 -303 -115q-63 0 -119.5 19.5t-99.5 57.5t-67.5 94.5t-24.5 129.5zM173 1284q47 86 103 131t128 45q35 0 62.5 -11t54.5 -28l47 -31q23 -16 45 -26t49 -10q35 0 63.5 24.5t49.5 67.5l106 -109q-35 -72 -92 -114.5t-129 -42.5 q-66 0 -121 36l-43 29q-27 16 -44 24.5t-46 8.5q-37 0 -69.5 -27.5t-61.5 -75.5zM307 291q0 -59 36 -99t114 -40q63 0 120.5 23.5t94.5 62.5v239h-41q-61 0 -119.5 -8t-104 -28.5t-73 -56.5t-27.5 -93z" />
<glyph unicode="&#xe4;" horiz-adv-x="1028" d="M70 0zM70 268q0 176 136 271.5t421 95.5h45v45q0 90 -51.5 124t-155.5 34q-72 0 -150.5 -18.5t-146.5 -51.5l-31 184q86 35 183.5 54.5t189.5 19.5t163.5 -18.5t122 -61.5t77 -111.5t26.5 -168.5v-482q0 -41 12.5 -57t57.5 -16v-127q-20 -6 -54 -11.5t-69 -5.5 q-61 0 -103.5 26.5t-58.5 88.5q-111 -115 -303 -115q-63 0 -119.5 19.5t-99.5 57.5t-67.5 94.5t-24.5 129.5zM210 1311v14q0 129 127 129q66 0 95.5 -32.5t29.5 -96.5v-14q0 -66 -29.5 -96.5t-95.5 -30.5q-127 0 -127 127zM307 291q0 -59 36 -99t114 -40q63 0 120.5 23.5 t94.5 62.5v239h-41q-61 0 -119.5 -8t-104 -28.5t-73 -56.5t-27.5 -93zM579 1311v14q0 129 127 129t127 -129v-14q0 -127 -127 -127t-127 127z" />
<glyph unicode="&#xe5;" horiz-adv-x="1028" d="M70 0zM70 268q0 176 136 271.5t421 95.5h45v45q0 90 -51.5 124t-155.5 34q-72 0 -150.5 -18.5t-146.5 -51.5l-31 184q86 35 183.5 54.5t189.5 19.5t163.5 -18.5t122 -61.5t77 -111.5t26.5 -168.5v-482q0 -41 12.5 -57t57.5 -16v-127q-20 -6 -54 -11.5t-69 -5.5 q-61 0 -103.5 26.5t-58.5 88.5q-111 -115 -303 -115q-63 0 -119.5 19.5t-99.5 57.5t-67.5 94.5t-24.5 129.5zM307 291q0 -59 36 -99t114 -40q63 0 120.5 23.5t94.5 62.5v239h-41q-61 0 -119.5 -8t-104 -28.5t-73 -56.5t-27.5 -93zM311 1360q0 43 16.5 82t46 68.5t68.5 46 t82 16.5t82 -16.5t66.5 -46t44 -68.5t16.5 -82q0 -90 -61.5 -151.5t-151.5 -61.5q-43 0 -81 16.5t-66.5 45t-45 67.5t-16.5 84zM448 1360q0 -33 20.5 -55.5t51.5 -22.5q33 0 54.5 22.5t21.5 55.5t-20.5 54.5t-53.5 21.5t-53.5 -21.5t-20.5 -54.5z" />
<glyph unicode="&#xe6;" horiz-adv-x="1638" d="M70 274q0 174 135 267.5t424 93.5h45v45q0 86 -50.5 123t-140.5 37q-78 0 -155.5 -19.5t-155.5 -54.5l-33 182q86 35 179.5 56.5t191.5 21.5q84 0 168 -30.5t133 -110.5q53 68 132 104.5t194 36.5q217 0 318 -126t101 -388q0 -29 -1 -54.5t-3 -56.5h-637q10 -113 74 -177 t195 -64q80 0 161.5 14t141.5 37l14 -182q-72 -31 -154.5 -46.5t-168.5 -15.5q-268 0 -394 150q-76 -72 -172 -111t-204 -39q-72 0 -133.5 19.5t-107.5 58.5t-71.5 96.5t-25.5 132.5zM309 293q0 -59 36 -100t114 -41q70 0 137.5 31.5t108.5 84.5q-16 47 -22.5 95.5 t-6.5 111.5h-17q-63 0 -125.5 -6t-112.5 -25.5t-81 -55.5t-31 -95zM913 565h412q0 57 -9 108.5t-30.5 89.5t-59.5 59.5t-96 21.5q-59 0 -100 -22.5t-66.5 -61.5t-37 -89t-13.5 -106z" />
<glyph unicode="&#xe7;" horiz-adv-x="927" d="M82 485v11q0 139 37 239.5t103.5 165t156.5 95t194 30.5q82 0 156 -17.5t127 -45.5l-18 -201q-41 27 -105.5 45t-130.5 18q-283 0 -283 -329v-7q0 -168 69 -246.5t210 -78.5q59 0 121.5 12t122.5 37l16 -190q-59 -25 -130 -39.5t-140 -16.5l-19 -90q104 -2 159.5 -47 t55.5 -137q0 -106 -68.5 -161.5t-185.5 -55.5q-53 0 -106 11t-96 32l34 121q39 -14 80 -22.5t72 -8.5q59 0 84 19.5t25 54.5q0 37 -28 56t-93 19q-25 0 -46.5 -2t-43.5 -6l-17 19l51 206q-166 27 -249 134q-55 66 -85 161t-30 215z" />
<glyph unicode="&#xe8;" horiz-adv-x="1042" d="M82 0zM82 494v4q0 115 28.5 212t85 167.5t142.5 109.5t203 39q217 0 318.5 -126t101.5 -388q0 -29 -1.5 -54.5t-3.5 -56.5h-637q10 -113 74 -177t195 -64q80 0 161.5 14t141.5 37l14 -182q-72 -31 -154.5 -46.5t-168.5 -15.5q-246 0 -373 127t-127 400zM239 1341l111 177 l436 -263l-78 -141zM317 565h412q0 57 -9 108.5t-30.5 89.5t-59.5 59.5t-95 21.5q-59 0 -100.5 -22.5t-67 -61.5t-37 -89t-13.5 -106z" />
<glyph unicode="&#xe9;" horiz-adv-x="1042" d="M82 0zM82 494v4q0 115 28.5 212t85 167.5t142.5 109.5t203 39q217 0 318.5 -126t101.5 -388q0 -29 -1.5 -54.5t-3.5 -56.5h-637q10 -113 74 -177t195 -64q80 0 161.5 14t141.5 37l14 -182q-72 -31 -154.5 -46.5t-168.5 -15.5q-246 0 -373 127t-127 400zM305 1255l437 263 l112 -177l-471 -227zM317 565h412q0 57 -9 108.5t-30.5 89.5t-59.5 59.5t-95 21.5q-59 0 -100.5 -22.5t-67 -61.5t-37 -89t-13.5 -106z" />
<glyph unicode="&#xea;" horiz-adv-x="1042" d="M82 0zM82 494v4q0 115 28.5 212t85 167.5t142.5 109.5t203 39q217 0 318.5 -126t101.5 -388q0 -29 -1.5 -54.5t-3.5 -56.5h-637q10 -113 74 -177t195 -64q80 0 161.5 14t141.5 37l14 -182q-72 -31 -154.5 -46.5t-168.5 -15.5q-246 0 -373 127t-127 400zM205 1237l264 279 h141l263 -279l-113 -100l-213 200h-16l-215 -200zM317 565h412q0 57 -9 108.5t-30.5 89.5t-59.5 59.5t-95 21.5q-59 0 -100.5 -22.5t-67 -61.5t-37 -89t-13.5 -106z" />
<glyph unicode="&#xeb;" horiz-adv-x="1042" d="M82 0zM82 494v4q0 115 28.5 212t85 167.5t142.5 109.5t203 39q217 0 318.5 -126t101.5 -388q0 -29 -1.5 -54.5t-3.5 -56.5h-637q10 -113 74 -177t195 -64q80 0 161.5 14t141.5 37l14 -182q-72 -31 -154.5 -46.5t-168.5 -15.5q-246 0 -373 127t-127 400zM231 1311v14 q0 129 127 129q66 0 95.5 -32.5t29.5 -96.5v-14q0 -66 -29.5 -96.5t-95.5 -30.5q-127 0 -127 127zM317 565h412q0 57 -9 108.5t-30.5 89.5t-59.5 59.5t-95 21.5q-59 0 -100.5 -22.5t-67 -61.5t-37 -89t-13.5 -106zM600 1311v14q0 129 127 129t127 -129v-14q0 -127 -127 -127 t-127 127z" />
<glyph unicode="&#xec;" horiz-adv-x="489" d="M-68 1341l111 177l436 -263l-78 -141zM0 0zM131 0v993h227v-993h-227z" />
<glyph unicode="&#xed;" horiz-adv-x="489" d="M26 1255l437 263l112 -177l-471 -227zM27 0zM131 0v993h227v-993h-227z" />
<glyph unicode="&#xee;" horiz-adv-x="489" d="M-88 1237l264 279h141l263 -279l-113 -100l-213 200h-16l-215 -200zM0 0zM131 0v993h227v-993h-227z" />
<glyph unicode="&#xef;" horiz-adv-x="489" d="M-64 1311v14q0 129 127 129q66 0 95.5 -32.5t29.5 -96.5v-14q0 -66 -29.5 -96.5t-95.5 -30.5q-127 0 -127 127zM0 0zM131 0v993h227v-993h-227zM305 1311v14q0 129 127 129t127 -129v-14q0 -127 -127 -127t-127 127z" />
<glyph unicode="&#xf0;" horiz-adv-x="1095" d="M82 504q0 129 34 224t89 156.5t129 91.5t153 30q57 0 108.5 -14.5t96.5 -39.5q-25 72 -73 132.5t-111 105.5l-146 -109l-73 86l110 86q-39 18 -79.5 32.5t-88.5 27.5l154 100q41 -10 79 -24.5t75 -30.5l131 102l78 -88l-95 -74q176 -117 266.5 -299t90.5 -440 q0 -293 -122 -442.5t-353 -149.5q-98 0 -182.5 33t-143.5 100.5t-93 168t-34 235.5zM334 508q0 -172 59.5 -254t151.5 -82q104 0 158.5 86t54.5 281q0 55 -5.5 106t-15.5 98q-88 53 -186 54q-100 0 -158.5 -64.5t-58.5 -224.5z" />
<glyph unicode="&#xf1;" horiz-adv-x="1103" d="M117 0v993h198l13 -108h2q63 66 145 103.5t184 37.5q174 0 253 -94t79 -285v-647h-227v610q0 115 -39 161t-131 46q-70 0 -135.5 -32.5t-114.5 -86.5v-698h-227zM117 0zM222 1280q47 86 103 131t128 45q35 0 62.5 -11t54.5 -28l47 -31q23 -16 45 -26t49 -10 q35 0 63.5 24.5t49.5 67.5l106 -109q-35 -72 -92 -114.5t-129 -42.5q-66 0 -121 36l-43 29q-27 16 -44 24.5t-46 8.5q-37 0 -69.5 -27.5t-61.5 -75.5z" />
<glyph unicode="&#xf2;" horiz-adv-x="1103" d="M82 0zM82 492v10q0 252 115.5 388t355.5 136q238 0 353.5 -136t115.5 -388v-10q0 -252 -115.5 -388.5t-353.5 -136.5q-240 0 -355.5 136.5t-115.5 388.5zM262 1341l111 177l436 -263l-78 -141zM319 496q0 -174 56.5 -256t177.5 -82t176 82t55 256q0 176 -55 258t-176 82 t-177.5 -82t-56.5 -258z" />
<glyph unicode="&#xf3;" horiz-adv-x="1103" d="M82 0zM82 492v10q0 252 115.5 388t355.5 136q238 0 353.5 -136t115.5 -388v-10q0 -252 -115.5 -388.5t-353.5 -136.5q-240 0 -355.5 136.5t-115.5 388.5zM319 496q0 -174 56.5 -256t177.5 -82t176 82t55 256q0 176 -55 258t-176 82t-177.5 -82t-56.5 -258zM321 1255 l437 263l112 -177l-471 -227z" />
<glyph unicode="&#xf4;" horiz-adv-x="1103" d="M82 0zM82 492v10q0 252 115.5 388t355.5 136q238 0 353.5 -136t115.5 -388v-10q0 -252 -115.5 -388.5t-353.5 -136.5q-240 0 -355.5 136.5t-115.5 388.5zM219 1237l264 279h141l263 -279l-113 -100l-213 200h-16l-215 -200zM319 496q0 -174 56.5 -256t177.5 -82t176 82 t55 256q0 176 -55 258t-176 82t-177.5 -82t-56.5 -258z" />
<glyph unicode="&#xf5;" horiz-adv-x="1103" d="M82 0zM82 492v10q0 252 115.5 388t355.5 136q238 0 353.5 -136t115.5 -388v-10q0 -252 -115.5 -388.5t-353.5 -136.5q-240 0 -355.5 136.5t-115.5 388.5zM203 1280q47 86 103 131t128 45q35 0 62.5 -11t54.5 -28l47 -31q23 -16 45 -26t49 -10q35 0 63.5 24.5t49.5 67.5 l106 -109q-35 -72 -92 -114.5t-129 -42.5q-66 0 -121 36l-43 29q-27 16 -44 24.5t-46 8.5q-37 0 -69.5 -27.5t-61.5 -75.5zM319 496q0 -174 56.5 -256t177.5 -82t176 82t55 256q0 176 -55 258t-176 82t-177.5 -82t-56.5 -258z" />
<glyph unicode="&#xf6;" horiz-adv-x="1103" d="M82 0zM82 492v10q0 252 115.5 388t355.5 136q238 0 353.5 -136t115.5 -388v-10q0 -252 -115.5 -388.5t-353.5 -136.5q-240 0 -355.5 136.5t-115.5 388.5zM243 1311v14q0 129 127 129q66 0 95.5 -32.5t29.5 -96.5v-14q0 -66 -29.5 -96.5t-95.5 -30.5q-127 0 -127 127z M319 496q0 -174 56.5 -256t177.5 -82t176 82t55 256q0 176 -55 258t-176 82t-177.5 -82t-56.5 -258zM612 1311v14q0 129 127 129t127 -129v-14q0 -127 -127 -127t-127 127z" />
<glyph unicode="&#xf7;" d="M143 440v201h826v-201h-826zM432 174v21q0 61 26.5 96t96.5 35q72 0 99.5 -35t27.5 -96v-21q0 -63 -27.5 -98t-99.5 -35q-70 0 -96.5 35t-26.5 98zM432 889v18q0 63 26.5 98t96.5 35q72 0 99.5 -34.5t27.5 -98.5v-18q0 -63 -27.5 -98t-99.5 -35q-70 0 -96.5 34.5 t-26.5 98.5z" />
<glyph unicode="&#xf8;" horiz-adv-x="1103" d="M82 492v10q0 252 115.5 388t355.5 136q129 0 221 -43l100 166l117 -64l-106 -176q70 -66 103.5 -169t33.5 -238v-10q0 -252 -115.5 -388.5t-353.5 -136.5q-125 0 -217 37l-92 -154l-109 68l92 156q-145 131 -145 418zM319 496q0 -137 33 -215l318 526q-51 29 -117 29 q-121 0 -177.5 -82t-56.5 -258zM442 180q49 -23 111 -22q121 0 176 82t55 256q0 61 -6 111t-22 91z" />
<glyph unicode="&#xf9;" horiz-adv-x="1073" d="M113 0zM113 477v516h227v-536q0 -86 6 -143.5t26.5 -92.5t59.5 -49t105 -14t104.5 14t59 49t26.5 92.5t6 143.5v536h228v-516q0 -135 -15.5 -231t-61.5 -157.5t-129 -91.5t-218 -30q-133 0 -216 30t-129.5 91.5t-62.5 157.5t-16 231zM243 1341l111 177l436 -263l-78 -141 z" />
<glyph unicode="&#xfa;" horiz-adv-x="1073" d="M113 0zM113 477v516h227v-536q0 -86 6 -143.5t26.5 -92.5t59.5 -49t105 -14t104.5 14t59 49t26.5 92.5t6 143.5v536h228v-516q0 -135 -15.5 -231t-61.5 -157.5t-129 -91.5t-218 -30q-133 0 -216 30t-129.5 91.5t-62.5 157.5t-16 231zM321 1255l437 263l112 -177 l-471 -227z" />
<glyph unicode="&#xfb;" horiz-adv-x="1073" d="M113 0zM113 477v516h227v-536q0 -86 6 -143.5t26.5 -92.5t59.5 -49t105 -14t104.5 14t59 49t26.5 92.5t6 143.5v536h228v-516q0 -135 -15.5 -231t-61.5 -157.5t-129 -91.5t-218 -30q-133 0 -216 30t-129.5 91.5t-62.5 157.5t-16 231zM209 1237l264 279h141l263 -279 l-113 -100l-213 200h-16l-215 -200z" />
<glyph unicode="&#xfc;" horiz-adv-x="1073" d="M113 0zM113 477v516h227v-536q0 -86 6 -143.5t26.5 -92.5t59.5 -49t105 -14t104.5 14t59 49t26.5 92.5t6 143.5v536h228v-516q0 -135 -15.5 -231t-61.5 -157.5t-129 -91.5t-218 -30q-133 0 -216 30t-129.5 91.5t-62.5 157.5t-16 231zM225 1311v14q0 129 127 129 q66 0 95.5 -32.5t29.5 -96.5v-14q0 -66 -29.5 -96.5t-95.5 -30.5q-127 0 -127 127zM594 1311v14q0 129 127 129t127 -129v-14q0 -127 -127 -127t-127 127z" />
<glyph unicode="&#xfd;" horiz-adv-x="958" d="M39 0zM39 993h239q47 -209 101.5 -400.5t111.5 -338.5h4q53 154 100.5 348.5t88.5 390.5h237q-29 -129 -65.5 -268t-77.5 -272.5t-84 -254t-84 -210.5q-53 -119 -103 -201t-102.5 -132t-110 -72.5t-124.5 -22.5q-78 0 -123 12l10 188q39 -14 99 -14q59 0 117.5 56.5 t109.5 185.5q-104 211 -188.5 461.5t-155.5 543.5zM290 1255l437 263l112 -177l-471 -227z" />
<glyph unicode="&#xfe;" horiz-adv-x="1107" d="M117 -408v1821h227v-500q53 51 126 82t163 31q193 0 293 -135t100 -379v-10q0 -117 -25.5 -215.5t-79 -169t-133 -110.5t-186.5 -40q-76 0 -144.5 24.5t-113.5 59.5v-459h-227zM344 244q35 -29 88 -49.5t109 -20.5q72 0 120 25.5t76.5 70.5t39.5 104.5t11 125.5 q0 59 -8 116.5t-30.5 101.5t-65.5 70.5t-113 26.5q-68 0 -128 -31.5t-99 -74.5v-465z" />
<glyph unicode="&#xff;" horiz-adv-x="958" d="M39 0zM39 993h239q47 -209 101.5 -400.5t111.5 -338.5h4q53 154 100.5 348.5t88.5 390.5h237q-29 -129 -65.5 -268t-77.5 -272.5t-84 -254t-84 -210.5q-53 -119 -103 -201t-102.5 -132t-110 -72.5t-124.5 -22.5q-78 0 -123 12l10 188q39 -14 99 -14q59 0 117.5 56.5 t109.5 185.5q-104 211 -188.5 461.5t-155.5 543.5zM182 1311v14q0 129 127 129q66 0 95.5 -32.5t29.5 -96.5v-14q0 -66 -29.5 -96.5t-95.5 -30.5q-127 0 -127 127zM551 1311v14q0 129 127 129t127 -129v-14q0 -127 -127 -127t-127 127z" />
<glyph unicode="&#x152;" horiz-adv-x="1771" d="M96 684v12q0 147 23.5 277.5t80 228.5t150.5 154.5t236 56.5q82 0 155.5 -26.5t128.5 -81.5v75h830l-27 -223h-561v-342h504l-25 -223h-479v-369h576l-23 -223h-793v88q-39 -53 -111.5 -87t-160.5 -34q-133 0 -228.5 52.5t-156.5 146.5t-90 226t-29 292zM356 690 q0 -242 65.5 -367.5t223.5 -125.5q66 0 120 23.5t87 64.5v823q-35 35 -87 57.5t-126 22.5q-78 0 -132 -33t-88 -95.5t-48.5 -155.5t-14.5 -214z" />
<glyph unicode="&#x153;" horiz-adv-x="1751" d="M82 492q0 256 115.5 395t357.5 139q238 0 352 -166q51 80 135 123t207 43q217 0 318.5 -126t101.5 -388q0 -29 -1 -54.5t-3 -56.5h-637q10 -113 73.5 -177t194.5 -64q80 0 162 14t141 37l15 -182q-72 -31 -155 -46.5t-169 -15.5q-274 0 -387 158q-51 -76 -141 -117 t-207 -41q-238 0 -355.5 135.5t-117.5 389.5zM317 496q0 -174 56.5 -258t181.5 -84q123 0 179.5 80.5t56.5 252.5q0 180 -53.5 266.5t-182.5 86.5q-125 0 -181.5 -84t-56.5 -260zM1026 565h412q0 57 -9.5 108.5t-31 89.5t-59.5 59.5t-95 21.5q-59 0 -100 -22.5t-66.5 -61.5 t-37 -89t-13.5 -106z" />
<glyph unicode="&#x178;" horiz-adv-x="1122" d="M41 0zM41 1380h256q61 -195 124.5 -360.5t135.5 -314.5h8q74 150 136.5 315.5t123.5 359.5h256q-78 -238 -183 -475t-216 -446v-459h-244v459q-113 207 -217 446.5t-180 474.5zM251 1675v13q0 129 127 129q66 0 95.5 -32t29.5 -97v-13q0 -66 -29.5 -97.5t-95.5 -31.5 q-127 0 -127 129zM620 1675v13q0 129 127 129t127 -129v-13q0 -129 -127 -129t-127 129z" />
<glyph unicode="&#x2c6;" horiz-adv-x="749" d="M41 1237l264 279h141l263 -279l-113 -100l-213 200h-16l-215 -200z" />
<glyph unicode="&#x2dc;" horiz-adv-x="749" d="M23 1280q47 86 103 131t128 45q35 0 62.5 -11t54.5 -28l47 -31q23 -16 45 -26t49 -10q35 0 63.5 24.5t49.5 67.5l106 -109q-35 -72 -92 -114.5t-129 -42.5q-66 0 -121 36l-43 29q-27 16 -44 24.5t-46 8.5q-37 0 -69.5 -27.5t-61.5 -75.5z" />
<glyph unicode="&#x2000;" horiz-adv-x="958" />
<glyph unicode="&#x2001;" horiz-adv-x="1917" />
<glyph unicode="&#x2002;" horiz-adv-x="958" />
<glyph unicode="&#x2003;" horiz-adv-x="1917" />
<glyph unicode="&#x2004;" horiz-adv-x="639" />
<glyph unicode="&#x2005;" horiz-adv-x="479" />
<glyph unicode="&#x2006;" horiz-adv-x="319" />
<glyph unicode="&#x2007;" horiz-adv-x="319" />
<glyph unicode="&#x2008;" horiz-adv-x="239" />
<glyph unicode="&#x2009;" horiz-adv-x="383" />
<glyph unicode="&#x200a;" horiz-adv-x="106" />
<glyph unicode="&#x2010;" horiz-adv-x="593" d="M82 403v203h430v-203h-430z" />
<glyph unicode="&#x2011;" horiz-adv-x="593" d="M82 403v203h430v-203h-430z" />
<glyph unicode="&#x2012;" horiz-adv-x="593" d="M82 403v203h430v-203h-430z" />
<glyph unicode="&#x2013;" horiz-adv-x="1024" d="M0 408v194h1024v-194h-1024z" />
<glyph unicode="&#x2014;" horiz-adv-x="2048" d="M0 408v194h2048v-194h-2048z" />
<glyph unicode="&#x2018;" horiz-adv-x="487" d="M102 1090q0 86 47.5 206.5t122.5 249.5l138 -51q-86 -152 -121 -264q102 -23 102 -152v-20q0 -68 -32.5 -104.5t-110.5 -36.5t-112 40.5t-34 131.5z" />
<glyph unicode="&#x2019;" horiz-adv-x="487" d="M78 969q86 152 121 264q-102 23 -103 151v21q0 68 33 104.5t111 36.5t111.5 -41t33.5 -131q0 -86 -47 -206.5t-123 -249.5z" />
<glyph unicode="&#x201a;" horiz-adv-x="487" d="M78 -307q86 152 121 264q-102 23 -103 152v20q0 68 33 104.5t111 36.5t111.5 -41t33.5 -131q0 -86 -47 -206.5t-123 -249.5z" />
<glyph unicode="&#x201c;" horiz-adv-x="917" d="M102 1090q0 86 47.5 206.5t122.5 249.5l138 -51q-86 -152 -121 -264q102 -23 102 -152v-20q0 -68 -32.5 -104.5t-110.5 -36.5t-112 40.5t-34 131.5zM532 1090q0 86 47.5 206.5t122.5 249.5l138 -51q-86 -152 -121 -264q102 -23 102 -152v-20q0 -68 -32.5 -104.5 t-110.5 -36.5t-112 40.5t-34 131.5z" />
<glyph unicode="&#x201d;" horiz-adv-x="917" d="M78 969q86 152 121 264q-102 23 -103 151v21q0 68 33 104.5t111 36.5t111.5 -41t33.5 -131q0 -86 -47 -206.5t-123 -249.5zM508 969q86 152 121 264q-102 23 -103 151v21q0 68 33 104.5t111 36.5t111.5 -41t33.5 -131q0 -86 -47 -206.5t-123 -249.5z" />
<glyph unicode="&#x201e;" horiz-adv-x="917" d="M78 -307q86 152 121 264q-102 23 -103 152v20q0 68 33 104.5t111 36.5t111.5 -41t33.5 -131q0 -86 -47 -206.5t-123 -249.5zM508 -307q86 152 121 264q-102 23 -103 152v20q0 68 33 104.5t111 36.5t111.5 -41t33.5 -131q0 -86 -47 -206.5t-123 -249.5z" />
<glyph unicode="&#x2022;" horiz-adv-x="737" d="M119 326v501h499v-501h-499z" />
<glyph unicode="&#x2026;" horiz-adv-x="1443" d="M96 111v18q0 68 35 104.5t111 36.5q74 0 108.5 -36.5t34.5 -104.5v-18q0 -68 -35 -106t-108 -38q-76 0 -111 38t-35 106zM578 111v18q0 68 34.5 104.5t110.5 36.5q74 0 108.5 -36.5t34.5 -104.5v-18q0 -68 -34.5 -106t-108.5 -38q-76 0 -110.5 38t-34.5 106zM1059 111v18 q0 68 34.5 104.5t110.5 36.5q74 0 109 -36.5t35 -104.5v-18q0 -68 -35 -106t-109 -38q-76 0 -110.5 38t-34.5 106z" />
<glyph unicode="&#x202f;" horiz-adv-x="383" />
<glyph unicode="&#x2039;" horiz-adv-x="694" d="M82 498l354 497l168 -104l-280 -393l280 -392q-41 -27 -84 -52t-84 -54z" />
<glyph unicode="&#x203a;" horiz-adv-x="694" d="M90 106l281 392l-281 393l168 104l354 -497l-354 -498z" />
<glyph unicode="&#x205f;" horiz-adv-x="479" />
<glyph unicode="&#x20ac;" d="M35 432l20 176h138q-2 16 -2.5 32.5t-0.5 31.5v29.5t3 27.5h-142l19 176h141q41 250 182.5 379t370.5 129q78 0 156.5 -17.5t142.5 -49.5l-29 -234q-53 29 -119.5 45.5t-132.5 16.5q-129 0 -202.5 -65t-102.5 -204h395l-20 -176h-401q-2 -10 -2 -24.5v-30.5t1 -32.5 t3 -33.5h395l-21 -176h-348q27 -123 98.5 -177t198.5 -54q63 0 135 16t131 45l21 -225q-61 -31 -146.5 -50.5t-160.5 -19.5q-248 0 -380 119t-167 346h-174z" />
<glyph unicode="&#x2122;" horiz-adv-x="1406" d="M59 1313v143h506l-8 -143h-162v-506h-170v506h-166zM614 807q4 172 13.5 337t19.5 312h184l144 -381q31 90 67.5 192.5t67.5 188.5h184q10 -145 19.5 -311t13.5 -338h-156q-4 102 -7 202.5t-7 202.5q-29 -82 -64.5 -176t-62.5 -164h-117q-33 80 -65.5 169t-61.5 167 q-6 -98 -9 -198.5t-7 -202.5h-156z" />
<glyph unicode="&#xe000;" horiz-adv-x="993" d="M0 0v993h993v-993h-993z" />
</font>
</defs>
</svg>
