<?xml version="1.0" standalone="no"?>
<!DOCTYPE svg PUBLIC "-//W3C//DTD SVG 1.1//EN" "http://www.w3.org/Graphics/SVG/1.1/DTD/svg11.dtd" >
<svg xmlns="http://www.w3.org/2000/svg">
<metadata></metadata>
<defs>
<font id="lloyds_bank_jacklight" horiz-adv-x="1026" >
<font-face units-per-em="2048" ascent="1536" descent="-512" />
<missing-glyph horiz-adv-x="358" />
<glyph unicode="&#xfb01;" horiz-adv-x="995" d="M49 887v106h156v82q0 78 16.5 148.5t61.5 117.5q49 53 124.5 72t165.5 19q61 0 127 -8.5t109 -18.5l-12 -100q-41 10 -102.5 17t-119.5 7q-63 0 -112 -11t-78 -36q-33 -31 -45 -81t-12 -136v-72h514v-993h-125v887h-389v-887h-123v887h-156z" />
<glyph unicode="&#xfb02;" horiz-adv-x="991" d="M49 887v106h156v82q0 78 16.5 148.5t61.5 117.5q49 53 116.5 72t155.5 19q78 0 153.5 -11.5t139.5 -27.5v-1393h-123v1311q-35 10 -81 14t-93 4q-59 0 -98 -11t-68 -36q-33 -31 -45 -81t-12 -136v-72h227l-12 -106h-215v-887h-123v887h-156z" />
<glyph unicode="&#xfb03;" horiz-adv-x="1507" d="M49 887v106h156v82q0 78 16.5 148.5t61.5 117.5q49 53 113.5 72t140.5 19q18 0 43.5 -2.5t48.5 -6.5l-13 -100q-10 2 -31.5 4t-33.5 2q-59 0 -98 -11t-68 -36q-33 -31 -45 -81t-12 -136v-72h389v82q0 78 16.5 148.5t61.5 117.5q49 53 125.5 72t166.5 19q61 0 126 -8.5 t108 -18.5l-12 -100q-41 10 -101.5 17t-117.5 7q-66 0 -114 -11t-77 -36q-35 -31 -46 -81t-11 -136v-72h512v-993h-123v887h-389v-887h-125v887h-389v-887h-123v887h-156z" />
<glyph unicode="&#xfb04;" horiz-adv-x="1503" d="M49 887v106h156v82q0 78 16.5 148.5t61.5 117.5q49 53 113.5 72t140.5 19q18 0 43.5 -2.5t48.5 -6.5l-13 -100q-10 2 -31.5 4t-33.5 2q-59 0 -98 -11t-68 -36q-33 -31 -45 -81t-12 -136v-72h389v82q0 78 16.5 148.5t61.5 117.5q49 53 117.5 72t164.5 19q72 0 145.5 -11.5 t137.5 -27.5v-1393h-123v1311q-35 10 -81 14t-93 4q-59 0 -98 -11t-68 -36q-33 -31 -45 -81t-12 -136v-72h227l-12 -106h-215v-887h-123v887h-389v-887h-123v887h-156z" />
<glyph horiz-adv-x="0" />
<glyph horiz-adv-x="0" />
<glyph unicode="&#xd;" horiz-adv-x="358" />
<glyph unicode=" "  horiz-adv-x="358" />
<glyph unicode="&#x09;" horiz-adv-x="358" />
<glyph unicode="&#xa0;" horiz-adv-x="358" />
<glyph unicode="!" horiz-adv-x="501" d="M172 70v20q0 47 16.5 72.5t61.5 25.5q43 0 60.5 -25.5t17.5 -72.5v-20q0 -47 -17.5 -75t-60.5 -28q-45 0 -61.5 28t-16.5 75zM184 866v514h129v-514l-20 -446h-86z" />
<glyph unicode="&#x22;" horiz-adv-x="612" d="M96 1004v438h150l-33 -438h-117zM381 1004v438h151l-32 -438h-119z" />
<glyph unicode="#" d="M47 393v109h174l66 375h-240v108h256l70 395h110l-69 -395h301l69 395h111l-70 -395h154v-108h-172l-66 -375h238v-109h-258l-68 -393h-108l67 393h-303l-67 -393h-109l68 393h-154zM330 502h303l65 375h-303z" />
<glyph unicode="$" d="M111 37l20 129q39 -16 82 -29.5t85 -23t81 -14.5t67 -5h39v539q-176 53 -272 144t-96 255q0 84 27.5 149.5t76.5 112.5t117 75t147 38v213h103v-207q80 -2 147.5 -16.5t132.5 -38.5l-24 -125q-66 23 -131.5 36t-124.5 15v-534q78 -25 144.5 -51.5t114.5 -69.5 t75.5 -106.5t27.5 -162.5q0 -172 -97 -265t-265 -118v-208h-103v198h-28q-86 0 -179.5 20.5t-166.5 49.5zM262 1040q0 -55 17.5 -96t47 -71.5t70.5 -52t88 -38.5v494q-31 -6 -56.5 -15.5t-47.5 -19.5q-119 -59 -119 -201zM588 104q98 20 157.5 77t59.5 171q0 57 -16.5 98.5 t-45 71t-68.5 48t-87 34.5v-500z" />
<glyph unicode="%" horiz-adv-x="1556" d="M104 995v29q0 190 59.5 289.5t190.5 99.5q133 0 191.5 -99.5t58.5 -289.5v-29q0 -190 -58.5 -288.5t-191.5 -98.5q-131 0 -190.5 98.5t-59.5 288.5zM221 1010q0 -160 33 -228.5t100 -68.5q76 0 104.5 68.5t28.5 228.5t-28.5 228.5t-104.5 68.5q-68 0 -100.5 -69 t-32.5 -228zM389 39l682 1399l119 -52l-684 -1396zM950 356v27q0 190 59.5 289.5t190.5 99.5q133 0 191.5 -99.5t58.5 -289.5v-27q0 -193 -58.5 -291t-191.5 -98q-131 0 -190.5 98.5t-59.5 290.5zM1067 369q0 -160 33 -227.5t100 -67.5q76 0 104.5 67.5t28.5 227.5 t-28.5 229.5t-104.5 69.5q-68 0 -100.5 -70t-32.5 -229z" />
<glyph unicode="&#x26;" horiz-adv-x="1347" d="M70 330v14q0 72 23.5 131.5t63.5 110.5t91 95t106 85q-66 90 -106.5 174t-40.5 160v16q0 51 19.5 104.5t58.5 96.5t97 69.5t136 26.5q57 0 110.5 -19.5t94.5 -54t64.5 -84t23.5 -108.5q0 -68 -24.5 -123t-66.5 -103.5t-94.5 -90.5t-107.5 -82q92 -109 199.5 -214.5 t204.5 -193.5q53 88 79.5 191.5t30.5 207.5h123q-10 -133 -45 -256t-98 -225q82 -72 157.5 -118t149.5 -62l-33 -105q-86 14 -176 65.5t-170 123.5q-78 -90 -188.5 -142.5t-253.5 -52.5q-90 0 -168 28t-136.5 76t-91 114.5t-32.5 144.5zM207 342q0 -115 82 -185.5t217 -70.5 q111 0 196.5 43t149.5 115q-102 98 -216 208.5t-212 225.5q-88 -68 -152.5 -145.5t-64.5 -184.5v-6zM336 1104q0 -59 30.5 -127t84.5 -141q45 33 87 67.5t72.5 71.5t49 78t18.5 88q0 72 -44 114.5t-114 42.5q-86 0 -135 -52t-49 -132v-10z" />
<glyph unicode="'" horiz-adv-x="325" d="M96 1004v438h150l-33 -438h-117z" />
<glyph unicode="(" horiz-adv-x="757" d="M203 604q0 274 106.5 503.5t290.5 416.5l59 -47q-160 -197 -236.5 -413t-76.5 -460q0 -487 311 -874l-55 -45q-180 188 -289.5 417.5t-109.5 501.5z" />
<glyph unicode=")" horiz-adv-x="757" d="M98 1477l60 47q184 -186 290.5 -415.5t106.5 -504.5q0 -272 -109.5 -501.5t-289.5 -417.5l-56 45q311 391 312 874q0 485 -314 873z" />
<glyph unicode="*" horiz-adv-x="704" d="M45 1151l45 113l221 -113l-22 248h121l-23 -248l227 115l43 -113l-243 -76l172 -188l-101 -72l-133 215l-137 -213l-100 74l176 184z" />
<glyph unicode="+" d="M123 508v121h326v327h126v-327h326v-121h-326v-326h-126v326h-326z" />
<glyph unicode="," horiz-adv-x="405" d="M82 -279q31 66 54.5 123.5t39.5 112.5q-29 8 -52.5 37t-23.5 84v28q0 115 101 115q102 0 102 -123q0 -59 -30.5 -164.5t-102.5 -248.5z" />
<glyph unicode="-" horiz-adv-x="575" d="M102 455v120h371v-120h-371z" />
<glyph unicode="." horiz-adv-x="405" d="M104 84v22q0 57 27 86t72 29q47 0 72.5 -28.5t25.5 -86.5v-22q0 -59 -25.5 -88t-72.5 -29q-45 0 -72 29t-27 88z" />
<glyph unicode="/" horiz-adv-x="774" d="M57 -33l521 1446h139l-518 -1446h-142z" />
<glyph unicode="0" d="M102 659v60q0 184 24 315t73 215t126.5 124t186.5 40q217 0 314.5 -164t97.5 -530v-60q0 -367 -97.5 -529.5t-314.5 -162.5q-109 0 -186.5 39t-126.5 123t-73 215t-24 315zM246 690q0 -313 59.5 -452.5t206.5 -139.5t206.5 139.5t59.5 452.5q0 158 -14 270.5t-45 184.5 t-82 105.5t-125 33.5t-125 -33.5t-82 -105.5t-45 -184.5t-14 -270.5z" />
<glyph unicode="1" d="M131 1145l381 235h127v-1265h289v-115h-742v115h318v1126l-328 -205z" />
<glyph unicode="2" d="M115 127l172 178q82 86 165 179.5t148.5 186.5t107.5 185t42 176q0 123 -64 191q-70 68 -207 67q-80 0 -159.5 -17.5t-151.5 -47.5l-16 123q66 27 158.5 46t195.5 19q174 0 280.5 -90t106.5 -266q0 -86 -26.5 -170t-85 -177.5t-150.5 -203t-225 -244.5l-144 -147h615 v-115h-748z" />
<glyph unicode="3" d="M117 33l22 121q72 -33 152 -48.5t139 -15.5q166 0 244 71.5t78 219.5q0 139 -90 213q-96 80 -291 80h-19v106h19q154 0 248 74t94 207q0 121 -65.5 175t-192.5 54q-68 0 -139.5 -14t-145.5 -45l-12 123q70 27 147.5 43t163.5 16q174 0 281.5 -85t107.5 -251 q0 -123 -57.5 -210t-177.5 -132v-4q121 -25 197.5 -112t76.5 -240q0 -201 -117.5 -306.5t-345.5 -105.5q-74 0 -162 18.5t-155 47.5z" />
<glyph unicode="4" d="M35 375v114q131 209 292.5 439.5t329.5 451.5h125v-888h195v-117h-195v-375h-135v375h-612zM172 492h475v692q-47 -59 -106.5 -141t-123 -175.5t-127 -190.5t-118.5 -185z" />
<glyph unicode="5" d="M115 18l18 125q68 -27 146.5 -40t162.5 -13q86 0 153 25.5t105 79.5q61 82 62 217q0 147 -66.5 220t-216.5 73q-59 0 -122.5 -13.5t-120.5 -36.5l-66 31l20 694h637v-112h-510l-16 -480q94 35 211 35q180 0 286.5 -101t106.5 -304q0 -111 -33.5 -196t-94 -141t-145.5 -85 t-188 -29q-90 0 -170.5 14.5t-158.5 36.5z" />
<glyph unicode="6" d="M82 584q0 143 29.5 291.5t98.5 267.5t183.5 194.5t286.5 75.5q31 0 62.5 -3t54.5 -9l-15 -111q-16 4 -42.5 6t-47.5 2q-98 0 -170.5 -32.5t-124.5 -85.5q-76 -82 -110.5 -194t-50.5 -222q59 47 142 70.5t169 23.5q180 0 285.5 -108.5t105.5 -307.5q0 -98 -28.5 -185 t-82 -151.5t-130 -101.5t-175.5 -37q-135 0 -220 54.5t-134 141.5t-67.5 197.5t-18.5 223.5zM226 507q1 -44 5.5 -89t14.5 -84q29 -117 95.5 -181.5t178.5 -64.5q131 0 202 93t71 247q0 147 -68 230t-205 83q-72 0 -149 -24.5t-140 -65.5q-4 -25 -5 -62.5t0 -81.5z" />
<glyph unicode="7" d="M92 1262v118h807v-123l-567 -1257h-154l580 1262h-666z" />
<glyph unicode="8" d="M80 346q0 123 78.5 229.5t228.5 165.5q-45 25 -90 56.5t-81 71.5t-58.5 91.5t-22.5 116.5q0 78 32 140.5t85 105.5t125 66.5t151 23.5q82 0 151 -21.5t119 -62.5t77.5 -101.5t27.5 -137.5q0 -100 -70.5 -194.5t-201.5 -160.5q59 -31 116.5 -66.5t101.5 -80.5t70.5 -101.5 t26.5 -130.5q0 -94 -34.5 -166.5t-95 -122t-139.5 -75t-165 -25.5t-165 23.5t-138 71t-94 118t-35 166.5zM225 362q0 -68 23.5 -118.5t63.5 -84.5t92.5 -51.5t111.5 -17.5q57 0 109.5 17.5t91.5 51.5t61.5 83t22.5 112q0 49 -16.5 91t-53.5 80t-95 77t-144 82 q-49 -20 -97.5 -50t-85.5 -70t-60.5 -90t-23.5 -112zM281 1083q0 -53 20.5 -95t56 -78t82 -65.5t95.5 -58.5q43 23 82.5 51.5t71.5 65.5t51.5 82t19.5 98q0 109 -66.5 161t-169.5 52q-47 0 -91 -13t-77.5 -39.5t-54 -66.5t-20.5 -94z" />
<glyph unicode="9" d="M84 938q0 100 28.5 187t83 151.5t133.5 100.5t181 36q129 0 213 -51t133 -137t67.5 -198t18.5 -230q0 -145 -29.5 -293t-98.5 -266.5t-183.5 -194.5t-286.5 -76q-31 0 -62.5 3t-54.5 10l13 112q18 -4 43.5 -7t48.5 -3q98 0 170.5 32.5t124.5 86.5q76 82 110.5 193.5 t50.5 221.5q-57 -43 -141 -68.5t-170 -25.5q-90 0 -162.5 30t-124 84t-79 131t-27.5 171zM229 954q0 -147 68 -231t205 -84q74 0 149.5 24.5t141.5 65.5q2 25 4 62.5t1 82t-6.5 89.5t-15.5 84q-27 117 -93.5 181t-180.5 64q-129 0 -201 -92t-72 -246z" />
<glyph unicode=":" horiz-adv-x="405" d="M104 0zM104 84v22q0 57 27 86t72 29q47 0 72.5 -28.5t25.5 -86.5v-22q0 -59 -25.5 -88t-72.5 -29q-45 0 -72 29t-27 88zM104 903v22q0 57 27 86t72 29q47 0 72.5 -28.5t25.5 -86.5v-22q0 -59 -25.5 -88t-72.5 -29q-45 0 -72 29t-27 88z" />
<glyph unicode=";" horiz-adv-x="405" d="M82 0zM82 -279q31 66 54.5 123.5t39.5 112.5q-29 8 -52.5 37t-23.5 84v28q0 115 101 115q102 0 102 -123q0 -59 -30.5 -164.5t-102.5 -248.5zM104 903v22q0 57 27 86t72 29q47 0 72.5 -28.5t25.5 -86.5v-22q0 -59 -25.5 -88t-72.5 -29q-45 0 -72 29t-27 88z" />
<glyph unicode="&#x3c;" d="M186 518v100l590 377l64 -102l-496 -320v-10l496 -321l-64 -101z" />
<glyph unicode="=" d="M123 303v123h778v-123h-778zM123 715v121h778v-121h-778z" />
<glyph unicode="&#x3e;" d="M186 242l498 321v10l-498 320l64 102l590 -377v-100l-590 -377z" />
<glyph unicode="?" horiz-adv-x="858" d="M82 1358q57 23 133 39t162 16t156.5 -21.5t122 -68.5t80 -120t28.5 -173q0 -178 -96.5 -281.5t-276.5 -103.5l-20 -264h-103l-16 373h63q168 0 244 65.5t76 214.5q0 137 -69.5 199.5t-207.5 62.5q-59 0 -130.5 -13t-131.5 -38zM244 70v20q0 47 16 72.5t62 25.5 q47 0 62 -25.5t15 -72.5v-20q0 -47 -15 -75t-62 -28q-45 0 -61.5 28t-16.5 75z" />
<glyph unicode="@" horiz-adv-x="1630" d="M82 612q0 162 58.5 308.5t166 255t261 173t341.5 64.5q129 0 245 -41t204 -116.5t139 -183t51 -243.5q0 -104 -24.5 -197t-73.5 -163t-122 -110t-169 -40q-86 0 -137 35t-68 88q-37 -55 -93 -89t-132 -34q-115 0 -182.5 75t-67.5 212q0 84 24.5 163t68.5 140.5t107.5 98 t143.5 36.5q59 0 107.5 -20t83.5 -55l14 67h111l-66 -389q-6 -33 -11 -72.5t-5 -70.5q0 -47 29.5 -72.5t78.5 -25.5q68 0 117 33.5t82 90t49.5 130t16.5 153.5q0 106 -39 196.5t-110 156t-169 101.5t-219 36q-145 0 -269 -49.5t-215.5 -139.5t-143.5 -218t-52 -286 q0 -254 151.5 -397t432.5 -143q104 0 220 18t208 49l-13 -104q-78 -29 -187.5 -47.5t-238.5 -18.5q-170 0 -301 48t-221 133t-136 204t-46 260zM598 612q0 -201 150 -200q55 0 106 33.5t90 91.5q4 29 7 57.5t12 75.5l34 217q-70 66 -163 65q-53 0 -96.5 -27.5t-74 -73.5 t-48 -108.5t-17.5 -130.5z" />
<glyph unicode="A" horiz-adv-x="1173" d="M51 0q109 369 228.5 714t238.5 666h141q123 -322 240 -666.5t223 -713.5h-143q-20 74 -45 155t-49 158q-152 -12 -303 -12q-152 0 -289 12q-27 -78 -50.5 -158.5t-45.5 -154.5h-146zM330 440q63 -4 124.5 -7t125.5 -3q68 0 134 3t132 7q-59 193 -125 386.5t-131 377.5h-4 q-63 -182 -129 -376.5t-127 -387.5z" />
<glyph unicode="B" horiz-adv-x="1153" d="M178 0v1380h314q92 0 179 -9t152.5 -45t105.5 -106.5t40 -191.5q0 -96 -41 -178t-142 -117v-4q59 -10 110.5 -36.5t89.5 -70.5t59.5 -102.5t21.5 -130.5q0 -115 -38 -189.5t-107.5 -118.5t-166 -62.5t-214.5 -18.5h-363zM313 133h238q90 0 159.5 11.5t116.5 40t71 79.5 t24 131q0 53 -17.5 100.5t-52.5 77.5q-49 47 -117.5 61.5t-154.5 14.5h-267v-516zM313 782h209q76 0 134.5 11.5t97.5 39t58 75.5t19 122q0 49 -17 95t-52 75q-35 27 -88 37t-131 10h-230v-465z" />
<glyph unicode="C" horiz-adv-x="1126" d="M106 688v10q0 348 147.5 531.5t440.5 183.5q104 0 198.5 -27.5t164.5 -66.5l-37 -135q-74 41 -155 66.5t-175 25.5q-219 0 -328.5 -148.5t-109.5 -433.5q0 -281 101.5 -437.5t326.5 -156.5q92 0 179 20.5t159 57.5l35 -121q-66 -37 -168.5 -63.5t-208.5 -26.5 q-160 0 -268.5 55.5t-176 152.5t-96.5 228.5t-29 284.5z" />
<glyph unicode="D" horiz-adv-x="1267" d="M178 0v1380h303q119 0 219.5 -13t171.5 -42q137 -59 213 -205.5t76 -414.5v-19q0 -410 -196 -575q-84 -68 -205 -89.5t-295 -21.5h-287zM313 133h211q139 0 225.5 23.5t147.5 85.5q66 66 92.5 182.5t26.5 271.5q0 154 -31 276t-108 187q-59 49 -147.5 68.5t-215.5 19.5 h-201v-1114z" />
<glyph unicode="E" horiz-adv-x="1038" d="M178 0v1380h768l-14 -133h-619v-465h547l-14 -133h-533v-516h623l-14 -133h-744z" />
<glyph unicode="F" horiz-adv-x="1013" d="M178 0v1380h768l-14 -133h-619v-465h547l-14 -133h-533v-649h-135z" />
<glyph unicode="G" horiz-adv-x="1228" d="M106 680v10q0 348 152 535.5t444 187.5q104 0 200.5 -27.5t168.5 -66.5l-37 -135q-76 41 -157.5 66.5t-178.5 25.5q-219 0 -332.5 -148.5t-113.5 -433.5q0 -283 106.5 -438.5t329.5 -155.5q59 0 125 10.5t121 30.5v424h-266l-21 133h422v-647q-78 -39 -178 -61.5 t-197 -22.5q-162 0 -273.5 52.5t-181 145.5t-101.5 224t-32 291z" />
<glyph unicode="H" horiz-adv-x="1320" d="M178 0v1380h135v-598h695v598h135v-1380h-135v649h-695v-649h-135z" />
<glyph unicode="I" horiz-adv-x="503" d="M184 0v1380h135v-1380h-135z" />
<glyph unicode="J" horiz-adv-x="811" d="M53 -10l8 119q33 -8 71 -13.5t65 -5.5q96 0 154.5 24.5t92.5 71.5q39 51 47.5 125t8.5 181v888h135v-886q0 -76 -3 -138.5t-15.5 -115t-35 -95.5t-59.5 -77q-47 -47 -127 -74t-178 -27q-39 0 -85 6.5t-79 16.5z" />
<glyph unicode="K" horiz-adv-x="1087" d="M178 0v1380h135v-684q84 76 160 153t147.5 160t141 174t143.5 197h146q-61 -92 -121 -173t-119 -154.5t-120.5 -141t-127.5 -135.5l498 -776h-164l-438 676q-35 -35 -70 -68t-76 -67v-541h-135z" />
<glyph unicode="L" horiz-adv-x="921" d="M178 0v1380h135v-1247h543l-14 -133h-664z" />
<glyph unicode="M" horiz-adv-x="1665" d="M156 0q6 143 14 317.5t19.5 358.5t23.5 365.5t25 338.5h129q53 -113 118.5 -254t131 -282.5t123 -271.5t94.5 -220h4q25 59 61.5 142.5t79.5 178.5t90 195.5t91 194.5t82 176t67 141h121q12 -158 24 -338t22.5 -362t18.5 -357.5t14 -322.5h-141q-2 84 -8 219t-13.5 290 t-16.5 312.5t-15 288.5h-4q-45 -96 -100.5 -216t-114 -247t-116.5 -256t-110 -246h-82q-96 217 -207.5 462t-228.5 503h-4q-10 -170 -18 -332t-15.5 -306t-12.5 -265t-7 -207h-139z" />
<glyph unicode="N" horiz-adv-x="1378" d="M178 0v1380h127l766 -1128h2v1128h127v-1380h-108l-785 1143h-2v-1143h-127z" />
<glyph unicode="O" horiz-adv-x="1267" d="M106 680v20q0 154 28 284t90.5 225.5t163.5 149.5t247 54q145 0 245.5 -54t163 -149.5t90 -225.5t27.5 -284v-20q0 -154 -27.5 -284t-90 -225t-163 -149.5t-245.5 -54.5t-246.5 54.5t-164 149.5t-90.5 225t-28 284zM252 692q0 -141 19.5 -250.5t64.5 -185.5t118.5 -116 t180.5 -40q106 0 179 39t118 115t64.5 185.5t19.5 250.5t-19.5 251t-64.5 184.5t-118 114.5t-179 40t-180 -40t-119 -114.5t-64.5 -184.5t-19.5 -249z" />
<glyph unicode="P" horiz-adv-x="1105" d="M178 0v1380h314q135 0 245.5 -23.5t182.5 -96.5q47 -47 74.5 -123t27.5 -183q0 -113 -32 -197.5t-91 -138.5q-59 -53 -147 -77.5t-201 -24.5h-238v-516h-135zM313 649h215q82 0 146.5 11.5t109.5 43t69 92t24 158.5q0 158 -97 232q-43 33 -103.5 47t-152.5 14h-211v-598z " />
<glyph unicode="Q" horiz-adv-x="1267" d="M106 680v20q0 154 28 284t90.5 225.5t163.5 149.5t247 54q145 0 245.5 -54t163 -149.5t90 -225.5t27.5 -284v-20q0 -205 -50 -364.5t-167 -252.5l201 -204l-113 -80q-12 14 -36.5 41.5t-52.5 58.5t-56.5 62.5t-50.5 58.5q-43 -16 -93.5 -24.5t-107.5 -8.5 q-145 0 -246.5 54.5t-164 149.5t-90.5 225t-28 284zM252 692q0 -141 19.5 -250.5t64.5 -185.5t118.5 -116t180.5 -40q106 0 179 39t118 115t64.5 185.5t19.5 250.5t-19.5 251t-64.5 184.5t-118 114.5t-179 40t-180 -40t-119 -114.5t-64.5 -184.5t-19.5 -249z" />
<glyph unicode="R" horiz-adv-x="1130" d="M178 0v1380h307q135 0 246 -23.5t182 -96.5q47 -47 75 -118t28 -179q0 -111 -32 -193t-91 -135q-23 -18 -51.5 -34.5t-63.5 -31.5l254 -569h-145l-230 541q-53 -6 -112 -6h-232v-535h-135zM313 668h168q76 0 129.5 2t89.5 12q80 23 125 85t45 196q0 82 -24.5 135 t-71.5 88q-43 33 -107.5 47t-148.5 14h-205v-579z" />
<glyph unicode="S" horiz-adv-x="976" d="M100 1040q0 94 34 165t93.5 117t137 68.5t167.5 22.5q74 0 149 -15.5t130 -39.5l-23 -125q-70 27 -130 39t-126 12q-57 0 -109 -13.5t-92 -43t-63.5 -75.5t-23.5 -112t20.5 -109.5t55 -75.5t82 -53.5t100.5 -37.5l65 -21q70 -23 130.5 -49t104.5 -68t69.5 -106.5 t25.5 -159.5q0 -188 -112.5 -290.5t-348.5 -102.5q-78 0 -170 20.5t-162 49.5l19 129q78 -35 161 -53.5t148 -18.5q70 0 129.5 12.5t101.5 42t65.5 78.5t23.5 125q0 68 -18.5 111t-52.5 72.5t-80 48t-101 34.5l-60 19q-158 49 -249 141t-91 262z" />
<glyph unicode="T" horiz-adv-x="1071" d="M72 1247v133h929l-16 -133h-385v-1247h-135v1247h-393z" />
<glyph unicode="U" horiz-adv-x="1302" d="M172 498v882h135v-868q0 -102 16.5 -179t56.5 -129t106.5 -78t164.5 -26t165 26t107 78t56 129t16 179v868h135v-882q0 -129 -24.5 -228.5t-81.5 -166t-148.5 -101.5t-224.5 -35t-224 35t-147.5 101.5t-82 166t-25.5 228.5z" />
<glyph unicode="V" horiz-adv-x="1179" d="M53 1380h146q84 -291 185 -602t204 -600h4q102 289 203.5 600.5t185.5 601.5h145q-109 -369 -226.5 -712.5t-237.5 -667.5h-146q-121 324 -237.5 668t-225.5 712z" />
<glyph unicode="W" horiz-adv-x="1816" d="M53 1380h146q29 -145 69.5 -305t85.5 -317.5t92.5 -307t90.5 -272.5h4q57 190 110.5 388t104.5 397q27 106 48 207.5t40 209.5h135q23 -109 44 -210t50 -207q53 -199 105.5 -391.5t115.5 -393.5h2q43 123 88.5 272.5t87 307t79.5 317.5t67 305h143q-39 -180 -86 -363 t-98 -360.5t-105.5 -343.5t-105.5 -313h-145q-41 115 -81 247t-79 271t-77 284.5t-71 289.5h-4q-66 -287 -143.5 -567.5t-155.5 -524.5h-147q-53 147 -108.5 313t-108.5 343.5t-103.5 360.5t-89.5 363z" />
<glyph unicode="X" horiz-adv-x="1093" d="M61 0q57 117 111.5 216t105 184t99.5 158t96 140q-98 137 -200.5 314.5t-188.5 367.5h156q61 -156 146 -308t171 -277q80 123 167 276.5t157 308.5h151q-92 -188 -194.5 -362t-196.5 -316q98 -137 196.5 -307t209.5 -395h-162q-70 160 -154 315.5t-172 286.5 q-86 -129 -174 -282.5t-160 -319.5h-164z" />
<glyph unicode="Y" horiz-adv-x="1048" d="M43 1380h150q27 -113 63.5 -222t78.5 -210.5t89 -191.5t96 -162h6q45 72 92.5 162t90.5 191.5t81.5 211t67.5 221.5h150q-82 -258 -188.5 -497.5t-229.5 -429.5v-453h-131v455q-135 188 -238.5 427.5t-177.5 497.5z" />
<glyph unicode="Z" horiz-adv-x="1060" d="M100 127l686 1120h-669v133h835v-125l-688 -1122h699l-25 -133h-819z" />
<glyph unicode="[" horiz-adv-x="706" d="M203 -229v1628h342v-103h-219v-1423h219v-102h-342z" />
<glyph unicode="\" horiz-adv-x="774" d="M57 1413h140l520 -1446h-142z" />
<glyph unicode="]" horiz-adv-x="706" d="M164 -127h217v1423h-217v103h340v-1628h-340v102z" />
<glyph unicode="^" d="M76 659l381 637h112l381 -637l-110 -55l-328 561l-334 -561z" />
<glyph unicode="_" horiz-adv-x="1005" d="M6 -150h993v-118h-993v118z" />
<glyph unicode="`" horiz-adv-x="657" d="M98 1343l78 121l387 -254l-59 -96z" />
<glyph unicode="a" horiz-adv-x="991" d="M80 260q0 94 49 173t141 122q68 31 155 46t228 15h62v56q0 57 -12.5 103t-42 77t-81 47t-128.5 16q-70 0 -146 -19t-131 -44l-20 109q66 29 150.5 47t168.5 18q168 0 266.5 -82t98.5 -264v-496q0 -57 10 -82.5t61 -25.5h9v-82q-10 -4 -31 -7t-37 -3q-45 0 -83 24.5 t-48 83.5q-66 -59 -146.5 -92t-183.5 -33q-63 0 -119.5 19.5t-98.5 57.5t-66.5 92t-24.5 124zM211 268q0 -78 50 -133t155 -55q92 0 173 41t126 94v301h-70q-76 0 -138.5 -6t-115.5 -23q-74 -25 -127 -78t-53 -141z" />
<glyph unicode="b" horiz-adv-x="1060" d="M127 0q2 23 4 66t3 90l2 94t1 80v1083h123v-483q76 51 154 73.5t153 22.5q104 0 195.5 -50t142.5 -157q29 -59 45.5 -137t16.5 -178v-6q0 -86 -16.5 -172t-55.5 -158q-49 -90 -137 -145.5t-217 -55.5q-78 0 -157 30t-144 79l-13 -76h-100zM260 197q55 -47 125 -79 t145 -32q80 0 131.5 25.5t88.5 66.5q47 59 65.5 144.5t18.5 183.5t-18.5 180t-65.5 137q-37 41 -88.5 63.5t-129.5 22.5q-72 0 -145.5 -29.5t-126.5 -72.5v-610z" />
<glyph unicode="c" horiz-adv-x="909" d="M96 487v7q0 252 114 392t339 140q86 0 161.5 -23.5t125.5 -54.5l-21 -119q-37 29 -108.5 53.5t-149.5 24.5q-330 0 -330 -411q0 -205 74 -309.5t246 -104.5q72 0 142.5 17.5t121.5 43.5l20 -108q-61 -31 -135.5 -49.5t-154.5 -18.5q-98 0 -177 25.5t-135 81.5 q-68 68 -100.5 172t-32.5 241z" />
<glyph unicode="d" horiz-adv-x="1067" d="M96 471v8q0 143 38 255t110 184q53 53 125.5 80.5t160.5 27.5q74 0 146 -17.5t131 -47.5v452h123v-1018q0 -84 3 -194.5t7 -200.5h-104l-11 86q-82 -66 -158.5 -92.5t-154.5 -26.5q-86 0 -163 32t-130 91q-57 63 -90 160.5t-33 220.5zM227 494q0 -193 75 -300.5 t235 -107.5q74 0 145.5 32t124.5 83v637q-53 33 -119.5 52t-124.5 19q-98 0 -162.5 -34.5t-102.5 -92t-54.5 -133.5t-16.5 -155z" />
<glyph unicode="e" d="M96 489v5q0 98 23.5 193t75 170t132.5 122t195 47q176 0 272.5 -96t125.5 -277q6 -35 9 -81t3 -87v-43h-703q10 -176 90 -268t240 -92q70 0 149.5 17.5t131.5 43.5l20 -108q-61 -31 -144 -49.5t-163 -18.5q-98 0 -181 26.5t-136 82.5q-68 68 -104 172t-36 241zM227 551 h572q-8 166 -72.5 261t-198.5 95q-125 0 -196 -76q-49 -49 -74 -121.5t-31 -158.5z" />
<glyph unicode="f" horiz-adv-x="585" d="M49 887v106h156v82q0 78 16.5 148.5t61.5 117.5q49 53 113.5 72t140.5 19q18 0 43.5 -2.5t48.5 -6.5l-13 -100q-10 2 -31.5 4t-33.5 2q-59 0 -98 -11t-68 -36q-33 -31 -45 -81t-12 -136v-72h237l-12 -106h-225v-887h-123v887h-156z" />
<glyph unicode="g" horiz-adv-x="1054" d="M68 -137q0 78 46 144.5t124 94.5q-33 23 -52.5 64t-19.5 84q0 53 29.5 94t74.5 62q-51 37 -88 102t-37 164v6q0 80 30 144.5t81 109.5t120.5 69.5t149.5 24.5q84 0 143.5 -19.5t108.5 -56.5q59 37 126 63.5t138 39.5l-16 -133q-43 0 -92 -8.5t-94 -20.5q33 -41 50 -93.5 t17 -119.5v-6q0 -88 -29.5 -153.5t-82 -108.5t-122 -64.5t-147.5 -21.5q-41 0 -87 9t-81 25q-33 -12 -52 -36.5t-19 -63.5q0 -51 35.5 -78.5t113.5 -27.5h230q152 0 233.5 -68t81.5 -201q0 -68 -30.5 -129t-90 -107t-145.5 -73t-197 -27q-219 0 -334.5 89.5t-115.5 226.5z M193 -123q0 -96 83.5 -161.5t249.5 -65.5q72 0 132.5 18.5t105.5 50t69.5 75.5t24.5 93q0 84 -53 122t-168 38h-193q-39 0 -69.5 1t-52.5 5q-55 -16 -92 -63t-37 -113zM270 674q0 -51 15.5 -95t47.5 -78t80 -53.5t115 -19.5q133 0 193.5 70.5t60.5 175.5q0 51 -15 95t-46 78 t-79 53.5t-114 19.5q-68 0 -115.5 -19.5t-79.5 -53.5t-47.5 -78t-15.5 -95z" />
<glyph unicode="h" horiz-adv-x="1077" d="M137 0v1413h123v-539q74 72 167 112t187 40q168 0 248 -82q45 -45 64.5 -113.5t19.5 -171.5v-659h-123v637q0 78 -12 130t-43 83q-27 29 -68 41t-100 12q-80 0 -174 -43t-166 -121v-739h-123z" />
<glyph unicode="i" horiz-adv-x="430" d="M137 1309v16q0 47 17.5 73.5t60.5 26.5q78 0 78 -100v-16q0 -96 -78 -97q-43 0 -60.5 25t-17.5 72zM154 0v993h122v-993h-122z" />
<glyph unicode="j" horiz-adv-x="423" d="M-74 -420l6 107h19q49 0 86 13t63.5 49t40 95.5t13.5 151.5v997h122v-985q0 -211 -71.5 -320.5t-241.5 -109.5h-16t-21 2zM137 1309v16q0 47 17.5 73.5t60.5 26.5q78 0 78 -100v-16q0 -96 -78 -97q-43 0 -60.5 25t-17.5 72z" />
<glyph unicode="k" horiz-adv-x="888" d="M137 0v1413h123v-868q104 80 219 199.5t211 248.5h144q-160 -231 -340 -401l358 -592h-147l-306 506q-35 -29 -69.5 -55.5t-69.5 -51.5v-399h-123z" />
<glyph unicode="l" horiz-adv-x="409" d="M143 0v1413h123v-1413h-123z" />
<glyph unicode="m" horiz-adv-x="1640" d="M137 0v993h101l14 -119q59 66 145 109t185 43q98 0 163.5 -42t98.5 -107q72 70 159 109.5t185 39.5q154 0 239 -82q45 -45 63.5 -113.5t18.5 -171.5v-659h-123v637q0 78 -9 124t-36 79q-23 29 -64.5 46t-109.5 17q-74 0 -148.5 -34.5t-139.5 -106.5q4 -29 4 -60.5v-66.5 v-635h-123v623q0 57 -5 108t-24.5 89t-59.5 60.5t-108 22.5q-82 0 -163 -45t-140 -110v-748h-123z" />
<glyph unicode="n" horiz-adv-x="1077" d="M137 0v993h101l16 -125q76 76 169 117t191 41q168 0 248 -82q45 -45 64.5 -113.5t19.5 -171.5v-659h-123v637q0 78 -12 130t-43 83q-27 29 -68 41t-100 12q-86 0 -177 -43t-163 -121v-739h-123z" />
<glyph unicode="o" horiz-adv-x="1062" d="M96 496v2q0 256 106.5 392t327.5 136q223 0 330 -135t107 -391v-4q0 -256 -106.5 -392.5t-330.5 -136.5q-221 0 -327.5 136.5t-106.5 392.5zM227 496q0 -207 73 -312.5t232 -105.5q160 0 232 105.5t72 312.5q0 209 -72 314t-232 105t-232.5 -105t-72.5 -314z" />
<glyph unicode="p" horiz-adv-x="1069" d="M137 -389v1382h90l15 -100q88 76 178 104.5t153 28.5q80 0 153 -27.5t128 -91.5q57 -63 88 -162.5t31 -222.5v-10q0 -143 -38 -255t-110 -183q-111 -106 -286 -107q-72 0 -141.5 16.5t-137.5 51.5v-424h-123zM260 158q53 -35 119.5 -54.5t126.5 -19.5q98 0 162.5 35 t102.5 92t54.5 132t16.5 155q0 82 -16.5 171t-73.5 152q-74 80 -201 80q-86 0 -162 -38t-129 -87v-618z" />
<glyph unicode="q" horiz-adv-x="1069" d="M96 489v11q0 98 24.5 192t77 169t134.5 120t196 45q88 0 158 -26.5t141 -79.5l15 73h90v-1382h-123v450q-78 -51 -158 -72.5t-153 -21.5q-106 0 -198.5 49.5t-143.5 155.5q-59 123 -60 317zM227 485q0 -98 20.5 -179t67.5 -136q37 -41 89.5 -63.5t127.5 -22.5 q76 0 149 29.5t128 72.5v619q-57 49 -121.5 75.5t-136.5 26.5q-104 0 -168 -41t-98.5 -102.5t-46 -136t-11.5 -142.5z" />
<glyph unicode="r" horiz-adv-x="620" d="M137 0v993h101l14 -137q59 63 141 108.5t187 53.5v-139q-92 -4 -176.5 -43t-143.5 -97v-739h-123z" />
<glyph unicode="s" horiz-adv-x="821" d="M100 735q0 76 29 131.5t78 91t113.5 52t138.5 16.5q53 0 113.5 -10t111.5 -27l-12 -108q-49 16 -104.5 25t-98.5 9q-129 0 -186.5 -46t-57.5 -121q0 -45 14.5 -74t41 -48.5t63.5 -33.5t84 -29l51 -16q72 -23 122 -48.5t82 -58t46 -74.5t14 -98q0 -84 -25.5 -141 t-72.5 -92t-113.5 -51.5t-146.5 -16.5q-72 0 -147.5 16.5t-133.5 41.5l11 108q59 -27 130.5 -43t127.5 -16q51 0 96 7t79 26.5t52 55.5t18 93q0 72 -43 111t-139 67l-57 17q-55 14 -105.5 36.5t-88.5 56.5t-61.5 80t-23.5 111z" />
<glyph unicode="t" horiz-adv-x="645" d="M39 887v106h156v279l122 18v-297h258l-6 -106h-252v-531q0 -90 9.5 -145t33 -86t63.5 -42t101 -11q10 0 25.5 1t30.5 3l10 -103q-27 -4 -56.5 -5t-39.5 -1q-86 0 -144.5 21.5t-92.5 64.5t-48 105.5t-14 144.5v584h-156z" />
<glyph unicode="u" horiz-adv-x="1048" d="M131 453v540h123v-538q0 -72 2 -122t9 -88t20.5 -64.5t38.5 -47.5q39 -33 90 -44t110 -11t110.5 11t90.5 44q25 20 38 47t20.5 65t9.5 88t2 122v538h123v-540q0 -113 -11.5 -203t-51.5 -152.5t-119 -96.5t-212 -34t-210.5 34t-118.5 96.5t-52.5 152.5t-11.5 203z" />
<glyph unicode="v" horiz-adv-x="872" d="M14 993h129q20 -82 57.5 -196.5t79.5 -234.5t81.5 -231.5t70.5 -189.5h4q27 76 67 187.5t80 232.5t75.5 235.5t56.5 196.5h131q-37 -129 -84 -271t-95.5 -277.5t-93.5 -252t-75 -192.5h-133q-31 76 -76 192.5t-94.5 252t-96.5 277.5t-84 271z" />
<glyph unicode="w" horiz-adv-x="1368" d="M31 993h129q18 -76 48 -180t62.5 -217t66.5 -223.5t62 -200.5q23 74 51.5 171t60.5 206.5t62.5 224.5t55.5 219h110q25 -104 55.5 -219t61.5 -224.5t59.5 -206.5t51.5 -171q27 90 61.5 200.5t68 223.5t63.5 217.5t48 179.5h129q-29 -111 -68.5 -245t-84.5 -269t-88 -260 t-78 -219h-111q-35 119 -65.5 221.5t-57 195.5t-51 182t-49.5 183q-25 -94 -48.5 -183t-51 -182t-58 -195.5t-67.5 -221.5h-109q-35 94 -79 219t-88 260t-85 269.5t-67 244.5z" />
<glyph unicode="x" horiz-adv-x="860" d="M31 0q88 147 168 272t157 230q-86 113 -164.5 241.5t-138.5 249.5h144q45 -98 106.5 -201.5t126.5 -195.5q66 92 127 195.5t109 201.5h141q-66 -121 -144.5 -250t-160.5 -241q78 -104 157.5 -229.5t171.5 -272.5h-153q-27 49 -58.5 103.5t-64.5 108.5t-65.5 103.5 t-59.5 90.5q-59 -82 -128 -194t-122 -212h-149z" />
<glyph unicode="y" horiz-adv-x="890" d="M20 993h138q68 -311 146.5 -540.5t164.5 -376.5q72 162 143.5 393t124.5 524h133q-41 -170 -79.5 -315.5t-79.5 -273.5t-85 -243.5t-96 -226.5q-47 -104 -93 -172.5t-92 -109.5t-95 -57.5t-103 -16.5q-61 0 -110 12l8 101q23 -6 46.5 -9.5t39.5 -3.5q35 0 64.5 7.5 t56.5 29.5q47 39 85 99.5t71 140.5q-109 168 -203 430t-185 608z" />
<glyph unicode="z" horiz-adv-x="841" d="M66 100l559 787h-539v106h682v-106l-555 -781h563l-24 -106h-666z" />
<glyph unicode="{" horiz-adv-x="698" d="M135 598v68q145 43 146 202v363q0 131 53 197.5t176 66.5h102v-94h-55q-45 0 -74.5 -7.5t-47 -27.5t-25 -58t-7.5 -98v-282q0 -76 -8 -127t-26.5 -85t-50 -53.5t-80.5 -29.5v-4q49 -10 80.5 -28.5t50 -52.5t26.5 -85t8 -127v-283q0 -59 7.5 -97t25 -58.5t47 -27.5 t74.5 -7h55v-94h-102q-123 0 -176 66.5t-53 197.5v362q0 156 -146 203z" />
<glyph unicode="|" horiz-adv-x="557" d="M217 -33v1465h123v-1465h-123z" />
<glyph unicode="}" horiz-adv-x="706" d="M96 -137h56q45 0 74.5 7t46 27.5t23.5 58.5t7 97v283q0 76 8 127t27.5 85t51.5 52t81 29v4q-49 10 -81 29.5t-51.5 53.5t-27.5 85t-8 127v282q0 59 -7 97.5t-23.5 58.5t-46 27.5t-74.5 7.5h-56v94h101q123 0 177 -66.5t54 -197.5v-363q0 -160 143 -202v-68 q-143 -47 -143 -203v-362q0 -131 -54.5 -197.5t-176.5 -66.5h-101v94z" />
<glyph unicode="~" d="M39 498q49 86 109.5 138t148.5 52q51 0 97 -20.5t98 -49.5l75 -40q41 -23 80 -38.5t80 -15.5q53 0 90 29t78 98l88 -55q-53 -98 -114.5 -142t-139.5 -44q-53 0 -99 15t-102 46l-82 43q-35 20 -70.5 38.5t-74.5 18.5q-29 0 -54.5 -12t-47 -32.5t-40 -46t-36.5 -50.5z" />
<glyph unicode="&#xa1;" horiz-adv-x="501" d="M172 903v21q0 47 16.5 74.5t61.5 27.5q43 0 60.5 -27.5t17.5 -74.5v-21q0 -47 -17.5 -72.5t-60.5 -25.5q-45 0 -61.5 25.5t-16.5 72.5zM184 127l23 446h86l20 -446v-514h-129v514z" />
<glyph unicode="&#xa2;" d="M143 678v6q0 227 92.5 363.5t276.5 162.5v203h104v-196q80 -4 151 -27t118 -51l-23 -117q-35 25 -102.5 48.5t-143.5 27.5v-826q66 4 130.5 20.5t111.5 41.5l21 -107q-57 -29 -124 -46t-139 -21v-193h-104v197q-72 6 -132.5 30.5t-103.5 69.5q-68 68 -100.5 172.5 t-32.5 241.5zM274 688q0 -180 55.5 -282.5t182.5 -124.5v809q-238 -51 -238 -402z" />
<glyph unicode="&#xa3;" d="M111 692v113h168v164q0 233 109.5 338.5t309.5 105.5q47 0 100.5 -7t119.5 -26l-29 -129q-29 10 -82 19.5t-98 9.5q-84 0 -141.5 -20.5t-91.5 -61.5t-48 -105.5t-14 -150.5v-137h331l-24 -113h-307v-205q0 -129 -43 -230t-103 -140v-4h613l-27 -113h-729l-6 129 q72 47 116 133t44 184v246h-168z" />
<glyph unicode="&#xa4;" d="M39 207l149 149q-63 98 -63 224q0 125 65 221l-151 151l96 97l152 -150q47 35 105.5 52.5t121.5 17.5q129 0 225 -68l152 148l96 -97l-151 -149q68 -92 67 -223q0 -133 -67 -226l151 -147l-96 -98l-152 147q-96 -66 -225 -66q-63 0 -121.5 16.5t-105.5 51.5l-152 -149z M260 580q0 -57 20.5 -103.5t54.5 -80.5t80 -52t99 -18q51 0 98 18t81 52t54.5 80t20.5 104q0 57 -20.5 103t-54.5 80t-81 52.5t-98 18.5q-53 0 -99 -18.5t-80 -52.5t-54.5 -80t-20.5 -103z" />
<glyph unicode="&#xa5;" d="M41 1380h149q68 -207 147 -408.5t171 -381.5h6q92 180 173 382t147 408h149q-70 -209 -158 -414.5t-182 -387.5h203v-121h-268v-133h268v-123h-268v-201h-132v201h-262v123h262v133h-262v121h197q-94 182 -183 386.5t-157 415.5z" />
<glyph unicode="&#xa6;" horiz-adv-x="557" d="M225 -33v533h107v-533h-107zM225 956v547h107v-547h-107z" />
<glyph unicode="&#xa7;" horiz-adv-x="946" d="M145 729q0 66 38 123t106 92q-59 37 -95 90t-36 123q0 63 25.5 111.5t69.5 80t105.5 48t133.5 16.5q63 0 114 -10t99 -29l-5 -98q-49 16 -100 25.5t-100 9.5q-115 0 -166 -41t-51 -105q0 -53 37.5 -92t125.5 -76l140 -59q51 -23 91 -45.5t67.5 -52t42 -68.5t14.5 -92 q0 -57 -32 -115.5t-91 -107.5q45 -23 77.5 -75t32.5 -118q0 -156 -95 -226.5t-249 -70.5q-63 0 -137 13.5t-145 42.5l6 106q82 -29 149.5 -42t114.5 -13q121 0 177.5 45t56.5 117q0 33 -8.5 58t-31 48t-61.5 44.5t-102 45.5l-94 41q-39 14 -79 35.5t-72 52.5t-52.5 72 t-20.5 96zM274 743q0 -63 36 -96t102 -63l184 -84q47 47 67.5 87t20.5 79q0 53 -39 94t-137 82l-135 55q-98 -53 -99 -154z" />
<glyph unicode="&#xa8;" horiz-adv-x="657" d="M70 1303v10q0 53 28.5 78.5t67.5 25.5q43 0 70.5 -25.5t27.5 -78.5v-10q0 -53 -27.5 -77t-70.5 -24q-39 0 -67.5 23.5t-28.5 77.5zM389 1303v10q0 53 30 78.5t68 25.5q41 0 70 -25.5t29 -78.5v-10q0 -53 -29 -77t-70 -24q-39 0 -68.5 23.5t-29.5 77.5z" />
<glyph unicode="&#xa9;" horiz-adv-x="1529" d="M104 680q0 143 49.5 267t137.5 215t210 143.5t267 52.5q143 0 265 -52.5t210 -143.5t137.5 -215t49.5 -267q0 -145 -49.5 -269t-137.5 -215.5t-210 -143.5t-265 -52q-145 0 -267 52t-210 143.5t-137.5 215.5t-49.5 269zM223 680q0 -117 39 -219.5t110.5 -180t172 -122.5 t223.5 -45t222.5 45t171 122.5t110.5 180t39 219.5q0 115 -39 217t-110.5 179t-171 121t-222.5 44t-223.5 -44t-172 -121t-110.5 -179t-39 -217zM471 672v4q0 193 83 284t222 91q57 0 107.5 -15.5t83.5 -36.5l-17 -98q-29 16 -72.5 32.5t-93.5 16.5q-199 0 -198 -272 q0 -274 190 -275q43 0 89 11.5t83 27.5l19 -94q-43 -20 -91.5 -33.5t-95.5 -13.5q-160 0 -234.5 92t-74.5 279z" />
<glyph unicode="&#xaa;" horiz-adv-x="714" d="M70 811q0 72 32.5 119t84 74.5t116 38t129.5 10.5h47v24q0 74 -33.5 102.5t-117.5 28.5q-47 0 -99.5 -12t-93.5 -33l-16 105q47 16 107.5 29.5t113.5 13.5q127 0 189.5 -51.5t62.5 -184.5v-313q0 -31 13 -41t42 -10v-86q-25 -6 -57 -7q-82 0 -98 66q-86 -76 -207 -76 q-104 0 -159.5 54.5t-55.5 148.5zM186 813q0 -47 29 -77.5t86 -30.5q47 0 95 18t83 53v180h-61q-35 0 -75 -4t-75 -19t-58.5 -44t-23.5 -76z" />
<glyph unicode="&#xab;" horiz-adv-x="1075" d="M115 498l344 475l98 -64l-299 -411l297 -410l-96 -63zM514 498l344 475l98 -64l-299 -411l297 -410l-96 -63z" />
<glyph unicode="&#xac;" d="M123 508v121h778v-465h-125v344h-653z" />
<glyph unicode="&#xad;" horiz-adv-x="575" d="M102 455v120h371v-120h-371z" />
<glyph unicode="&#xae;" horiz-adv-x="1529" d="M104 680q0 143 49.5 267t137.5 215t210 143.5t267 52.5q143 0 265 -52.5t210 -143.5t137.5 -215t49.5 -267q0 -145 -49.5 -269t-137.5 -215.5t-210 -143.5t-265 -52q-145 0 -267 52t-210 143.5t-137.5 215.5t-49.5 269zM223 680q0 -117 39 -219.5t110.5 -180t172 -122.5 t223.5 -45t222.5 45t171 122.5t110.5 180t39 219.5q0 115 -39 217t-110.5 179t-171 121t-222.5 44t-223.5 -44t-172 -121t-110.5 -179t-39 -217zM557 301v750h188q147 0 213 -54.5t66 -181.5q0 -72 -26.5 -131t-90.5 -86l133 -297h-122l-113 272q-16 -2 -34.5 -2h-35.5h-57 v-270h-121zM678 680h74q84 0 115.5 26.5t31.5 108.5q0 72 -32.5 98.5t-114.5 26.5h-74v-260z" />
<glyph unicode="&#xaf;" horiz-adv-x="657" d="M74 1217v116h508v-116h-508z" />
<glyph unicode="&#xb0;" horiz-adv-x="552" d="M45 1223q0 45 13.5 88t42 75.5t71.5 52t104 19.5q59 0 103.5 -19.5t72 -52t41 -75.5t13.5 -88q0 -119 -61.5 -177.5t-168.5 -58.5q-106 0 -168.5 58.5t-62.5 177.5zM162 1223q0 -135 114 -136q115 0 115 136q0 66 -28 100.5t-87 34.5t-86.5 -35t-27.5 -100z" />
<glyph unicode="&#xb1;" d="M123 0v115h776v-115h-776zM123 623v120h326v324h126v-324h324v-120h-324v-326h-126v326h-326z" />
<glyph unicode="&#xb2;" horiz-adv-x="638" d="M76 920l94 86q70 63 119 112t79.5 93t45 85t14.5 86q0 66 -34 94.5t-103 28.5q-47 0 -92 -11t-95 -30l-26 99q49 23 106.5 36t118.5 13q121 0 181.5 -58.5t60.5 -156.5q0 -53 -17.5 -106.5t-56.5 -111t-100.5 -120t-149.5 -135.5h326v-99h-463z" />
<glyph unicode="&#xb3;" horiz-adv-x="638" d="M70 852l24 100q98 -41 180 -41q88 0 125 31q25 18 33 48t8 61q0 66 -37 94q-47 35 -149 35h-39v92h41q74 0 116 31.5t42 99.5q0 102 -127 102q-47 0 -88 -9t-82 -21l-19 98q43 16 94.5 27.5t104.5 11.5q123 0 178 -52.5t55 -144.5q0 -131 -100 -180q59 -16 94 -63.5 t35 -114.5q0 -250 -276 -250q-106 0 -213 45z" />
<glyph unicode="&#xb4;" horiz-adv-x="657" d="M96 1210l385 254l80 -121l-407 -229z" />
<glyph unicode="&#xb6;" d="M90 1087q0 156 94.5 241t249.5 85h486v-1620h-123v1520h-232v-1520h-125v981q-80 0 -144.5 23.5t-110.5 65.5t-70.5 99.5t-24.5 124.5z" />
<glyph unicode="&#xb7;" horiz-adv-x="405" d="M104 393zM104 510v22q0 57 27 86t72 29q47 0 72.5 -28.5t25.5 -86.5v-22q0 -59 -25.5 -88t-72.5 -29q-45 0 -72 29t-27 88z" />
<glyph unicode="&#xb8;" horiz-adv-x="657" d="M131 -451l25 99q35 -10 69.5 -15.5t63.5 -5.5q59 0 83.5 19.5t24.5 58.5q0 43 -30.5 64.5t-112.5 21.5h-20.5t-22.5 -2l-10 12l61 236l109 -10l-33 -146q188 -12 188 -170q0 -92 -61.5 -140t-163.5 -48q-47 0 -93 8t-77 18z" />
<glyph unicode="&#xb9;" horiz-adv-x="638" d="M61 1456l232 137h98v-669h170v-99h-465v99h183v528l-181 -98z" />
<glyph unicode="&#xba;" horiz-adv-x="739" d="M68 954v11q0 164 74.5 255t228.5 91q152 0 226.5 -91.5t74.5 -254.5v-11q0 -164 -75 -255t-226 -91q-154 0 -228.5 91.5t-74.5 254.5zM184 961q0 -139 49.5 -193.5t137.5 -54.5q86 0 135 54t49 194q0 139 -49 192t-135 53q-88 0 -137.5 -53t-49.5 -192z" />
<glyph unicode="&#xbb;" horiz-adv-x="1075" d="M119 909l98 64l344 -475l-344 -473l-96 63l297 410zM518 909l98 64l345 -475l-345 -473l-96 63l297 410z" />
<glyph unicode="&#xbc;" horiz-adv-x="1640" d="M104 1257l232 138h98v-670h170v-98h-465v98h183v528l-181 -98zM438 39l682 1399l119 -52l-684 -1396zM920 180v84q35 51 82 115.5t99 131.5t103 130.5t94 114.5h93v-475h116v-101h-116v-194h-115v194h-356zM1042 281h234v301q-51 -59 -115.5 -143.5t-118.5 -157.5z" />
<glyph unicode="&#xbd;" horiz-adv-x="1640" d="M104 1257l232 138h98v-670h170v-98h-465v98h183v528l-181 -98zM438 39l682 1399l119 -52l-684 -1396zM1069 82l94 84q70 63 119 113.5t80 94.5t45 85t14 86q0 123 -137 123q-47 0 -92 -11.5t-94 -29.5l-27 98q49 23 106.5 35t118.5 12q121 0 181.5 -57.5t60.5 -155.5 q0 -53 -17.5 -106.5t-56.5 -110.5t-100 -119.5t-150 -136.5h326v-100h-463z" />
<glyph unicode="&#xbe;" horiz-adv-x="1640" d="M125 653l25 101q98 -41 180 -41q88 0 125 30q25 18 33 48t8 61q0 66 -37 94q-47 35 -150 35h-39v92h41q74 0 116 32t42 99q0 102 -127 103q-47 0 -88 -9.5t-82 -21.5l-18 98q43 16 94 27.5t104 11.5q123 0 178.5 -52t55.5 -144q0 -131 -101 -181q59 -16 94 -63t35 -115 q0 -250 -276 -250q-106 0 -213 45zM438 39l682 1399l119 -52l-684 -1396zM920 180v84q35 51 82 115.5t99 131.5t103 130.5t94 114.5h93v-475h116v-101h-116v-194h-115v194h-356zM1042 281h234v301q-51 -59 -115.5 -143.5t-118.5 -157.5z" />
<glyph unicode="&#xbf;" horiz-adv-x="858" d="M94 -37q0 178 96.5 281.5t276.5 103.5l20 264h103l16 -372h-63q-168 0 -244 -65.5t-76 -215.5q0 -137 69.5 -199.5t207.5 -62.5q59 0 130.5 13.5t131.5 37.5l14 -113q-57 -23 -133 -39t-162 -16t-156.5 21.5t-121.5 68.5t-80 119t-29 174zM459 903v21q0 47 15 74.5 t63 27.5q45 0 61 -27.5t16 -74.5v-21q0 -47 -16 -72.5t-61 -25.5q-47 0 -62.5 25.5t-15.5 72.5z" />
<glyph unicode="&#xc0;" horiz-adv-x="1173" d="M51 0q109 369 228.5 714t238.5 666h141q123 -322 240 -666.5t223 -713.5h-143q-20 74 -45 155t-49 158q-152 -12 -303 -12q-152 0 -289 12q-27 -78 -50.5 -158.5t-45.5 -154.5h-146zM309 1700l78 121l387 -254l-59 -94zM330 440q63 -4 124.5 -7t125.5 -3q68 0 134 3 t132 7q-59 193 -125 386.5t-131 377.5h-4q-63 -182 -129 -376.5t-127 -387.5z" />
<glyph unicode="&#xc1;" horiz-adv-x="1173" d="M51 0q109 369 228.5 714t238.5 666h141q123 -322 240 -666.5t223 -713.5h-143q-20 74 -45 155t-49 158q-152 -12 -303 -12q-152 0 -289 12q-27 -78 -50.5 -158.5t-45.5 -154.5h-146zM330 440q63 -4 124.5 -7t125.5 -3q68 0 134 3t132 7q-59 193 -125 386.5t-131 377.5h-4 q-63 -182 -129 -376.5t-127 -387.5zM434 1567l385 254l80 -121l-407 -227z" />
<glyph unicode="&#xc2;" horiz-adv-x="1173" d="M51 0q109 369 228.5 714t238.5 666h141q123 -322 240 -666.5t223 -713.5h-143q-20 74 -45 155t-49 158q-152 -12 -303 -12q-152 0 -289 12q-27 -78 -50.5 -158.5t-45.5 -154.5h-146zM299 1597l246 246h86l246 -246l-93 -73l-190 186h-12l-195 -186zM330 440 q63 -4 124.5 -7t125.5 -3q68 0 134 3t132 7q-59 193 -125 386.5t-131 377.5h-4q-63 -182 -129 -376.5t-127 -387.5z" />
<glyph unicode="&#xc3;" horiz-adv-x="1173" d="M51 0q109 369 228.5 714t238.5 666h141q123 -322 240 -666.5t223 -713.5h-143q-20 74 -45 155t-49 158q-152 -12 -303 -12q-152 0 -289 12q-27 -78 -50.5 -158.5t-45.5 -154.5h-146zM281 1645q43 86 94 125.5t98 39.5q39 0 66.5 -14t60.5 -39l35 -24q20 -14 40.5 -23.5 t43.5 -9.5q31 0 55.5 22.5t44.5 63.5l74 -70q-27 -66 -73 -104.5t-107 -38.5q-37 0 -67 13t-60 36l-31 20q-23 16 -40 26.5t-40 10.5q-35 0 -62.5 -29.5t-50.5 -74.5zM330 440q63 -4 124.5 -7t125.5 -3q68 0 134 3t132 7q-59 193 -125 386.5t-131 377.5h-4 q-63 -182 -129 -376.5t-127 -387.5z" />
<glyph unicode="&#xc4;" horiz-adv-x="1173" d="M51 0q109 369 228.5 714t238.5 666h141q123 -322 240 -666.5t223 -713.5h-143q-20 74 -45 155t-49 158q-152 -12 -303 -12q-152 0 -289 12q-27 -78 -50.5 -158.5t-45.5 -154.5h-146zM330 440q63 -4 124.5 -7t125.5 -3q68 0 134 3t132 7q-59 193 -125 386.5t-131 377.5h-4 q-63 -182 -129 -376.5t-127 -387.5zM330 1661v10q0 53 28.5 78t67.5 25q43 0 70.5 -25t27.5 -78v-10q0 -53 -27.5 -77.5t-70.5 -24.5q-39 0 -67.5 24.5t-28.5 77.5zM649 1661v10q0 53 30 78t69 25q41 0 69.5 -25t28.5 -78v-10q0 -53 -29 -77.5t-69 -24.5q-39 0 -69 24.5 t-30 77.5z" />
<glyph unicode="&#xc5;" horiz-adv-x="1173" d="M51 0q109 369 228.5 714t238.5 666h141q123 -322 240 -666.5t223 -713.5h-143q-20 74 -45 155t-49 158q-152 -12 -303 -12q-152 0 -289 12q-27 -78 -50.5 -158.5t-45.5 -154.5h-146zM330 440q63 -4 124.5 -7t125.5 -3q68 0 134 3t132 7q-59 193 -125 386.5t-131 377.5h-4 q-63 -182 -129 -376.5t-127 -387.5zM412 1698q0 78 50 128t126 50q78 0 127 -50t49 -128q0 -76 -49 -126t-127 -50q-76 0 -126 50t-50 126zM506 1698q0 -37 21.5 -60.5t60.5 -23.5t60.5 23.5t21.5 60.5q0 39 -21.5 62.5t-60.5 23.5t-60.5 -23.5t-21.5 -62.5z" />
<glyph unicode="&#xc6;" horiz-adv-x="1619" d="M49 0q41 98 95.5 218t114.5 248t125 259t125 252t114.5 225.5t95.5 177.5h809l-15 -133h-577v-465h506l-15 -133h-491v-516h582l-15 -133h-702v305q-43 -4 -101.5 -6t-117.5 -2t-119 3t-125 7q-20 -43 -36.5 -81t-33 -74.5t-32 -73.5t-31.5 -78h-156zM397 440 q55 -4 106.5 -6t102.5 -2q102 0 195 6v809h-21q-35 -68 -88 -177t-108.5 -226t-105.5 -225.5t-81 -178.5z" />
<glyph unicode="&#xc7;" horiz-adv-x="1126" d="M106 688v10q0 348 147.5 531.5t440.5 183.5q104 0 198.5 -27.5t164.5 -66.5l-37 -135q-74 41 -155 66.5t-175 25.5q-219 0 -328.5 -148.5t-109.5 -433.5q0 -281 101.5 -437.5t326.5 -156.5q92 0 179 20.5t159 57.5l35 -121q-66 -37 -166.5 -62.5t-204.5 -27.5l-18 -86 q188 -12 188 -170q0 -92 -61.5 -140t-163.5 -48q-47 0 -93.5 8t-76.5 18l24 99q35 -10 70 -15.5t63 -5.5q59 0 84 19.5t25 58.5q0 43 -30.5 64.5t-112.5 21.5h-20.5t-22.5 -2l-11 12l45 174q-129 18 -218 79t-144 155t-79 217t-24 262z" />
<glyph unicode="&#xc8;" horiz-adv-x="1038" d="M178 0v1380h768l-14 -133h-619v-465h547l-14 -133h-533v-516h623l-14 -133h-744zM307 1700l78 121l387 -254l-59 -94z" />
<glyph unicode="&#xc9;" horiz-adv-x="1038" d="M178 0v1380h768l-14 -133h-619v-465h547l-14 -133h-533v-516h623l-14 -133h-744zM406 1567l385 254l79 -121l-407 -227z" />
<glyph unicode="&#xca;" horiz-adv-x="1038" d="M178 0v1380h768l-14 -133h-619v-465h547l-14 -133h-533v-516h623l-14 -133h-744zM295 1597l246 246h86l245 -246l-92 -73l-190 186h-12l-195 -186z" />
<glyph unicode="&#xcb;" horiz-adv-x="1038" d="M178 0v1380h768l-14 -133h-619v-465h547l-14 -133h-533v-516h623l-14 -133h-744zM305 1661v10q0 53 28.5 78t67.5 25q43 0 71 -25t28 -78v-10q0 -53 -28 -77.5t-71 -24.5q-39 0 -67.5 24.5t-28.5 77.5zM625 1661v10q0 53 29.5 78t68.5 25q41 0 69.5 -25t28.5 -78v-10 q0 -53 -28.5 -77.5t-69.5 -24.5q-39 0 -68.5 24.5t-29.5 77.5z" />
<glyph unicode="&#xcc;" horiz-adv-x="503" d="M-23 1700l78 121l387 -254l-59 -94zM184 0v1380h135v-1380h-135z" />
<glyph unicode="&#xcd;" horiz-adv-x="503" d="M98 1567l385 254l80 -121l-407 -227zM184 0v1380h135v-1380h-135z" />
<glyph unicode="&#xce;" horiz-adv-x="503" d="M-37 1597l246 246h86l246 -246l-92 -73l-191 186h-12l-195 -186zM184 0v1380h135v-1380h-135z" />
<glyph unicode="&#xcf;" horiz-adv-x="503" d="M-6 1661v10q0 53 28.5 78t67.5 25q43 0 70.5 -25t27.5 -78v-10q0 -53 -27.5 -77.5t-70.5 -24.5q-39 0 -67.5 24.5t-28.5 77.5zM184 0v1380h135v-1380h-135zM313 1661v10q0 53 30 78t69 25q41 0 69.5 -25t28.5 -78v-10q0 -53 -28.5 -77.5t-69.5 -24.5q-39 0 -69 24.5 t-30 77.5z" />
<glyph unicode="&#xd0;" horiz-adv-x="1267" d="M37 633v133h141v614h303q119 0 219.5 -13t171.5 -42q137 -59 213 -205.5t76 -414.5v-19q0 -410 -196 -575q-84 -68 -205 -89.5t-295 -21.5h-287v633h-141zM313 133h211q139 0 225.5 23.5t147.5 85.5q66 66 92.5 182.5t26.5 271.5q0 154 -31 276t-108 187 q-59 49 -147.5 68.5t-215.5 19.5h-201v-481h299v-133h-299v-500z" />
<glyph unicode="&#xd1;" horiz-adv-x="1378" d="M178 0v1380h127l766 -1128h2v1128h127v-1380h-108l-785 1143h-2v-1143h-127zM387 1645q43 86 94 125.5t99 39.5q39 0 66.5 -14t60.5 -39l34 -24q20 -14 41 -23.5t43 -9.5q31 0 55.5 22.5t45.5 63.5l73 -70q-27 -66 -72.5 -104.5t-107.5 -38.5q-37 0 -66.5 13t-60.5 36 l-30 20q-23 16 -40.5 26.5t-39.5 10.5q-35 0 -62.5 -29.5t-50.5 -74.5z" />
<glyph unicode="&#xd2;" horiz-adv-x="1267" d="M106 680v20q0 154 28 284t90.5 225.5t163.5 149.5t247 54q145 0 245.5 -54t163 -149.5t90 -225.5t27.5 -284v-20q0 -154 -27.5 -284t-90 -225t-163 -149.5t-245.5 -54.5t-246.5 54.5t-164 149.5t-90.5 225t-28 284zM252 692q0 -141 19.5 -250.5t64.5 -185.5t118.5 -116 t180.5 -40q106 0 179 39t118 115t64.5 185.5t19.5 250.5t-19.5 251t-64.5 184.5t-118 114.5t-179 40t-180 -40t-119 -114.5t-64.5 -184.5t-19.5 -249zM393 1700l78 121l387 -254l-59 -94z" />
<glyph unicode="&#xd3;" horiz-adv-x="1267" d="M106 680v20q0 154 28 284t90.5 225.5t163.5 149.5t247 54q145 0 245.5 -54t163 -149.5t90 -225.5t27.5 -284v-20q0 -154 -27.5 -284t-90 -225t-163 -149.5t-245.5 -54.5t-246.5 54.5t-164 149.5t-90.5 225t-28 284zM252 692q0 -141 19.5 -250.5t64.5 -185.5t118.5 -116 t180.5 -40q106 0 179 39t118 115t64.5 185.5t19.5 250.5t-19.5 251t-64.5 184.5t-118 114.5t-179 40t-180 -40t-119 -114.5t-64.5 -184.5t-19.5 -249zM463 1567l385 254l80 -121l-408 -227z" />
<glyph unicode="&#xd4;" horiz-adv-x="1267" d="M106 680v20q0 154 28 284t90.5 225.5t163.5 149.5t247 54q145 0 245.5 -54t163 -149.5t90 -225.5t27.5 -284v-20q0 -154 -27.5 -284t-90 -225t-163 -149.5t-245.5 -54.5t-246.5 54.5t-164 149.5t-90.5 225t-28 284zM252 692q0 -141 19.5 -250.5t64.5 -185.5t118.5 -116 t180.5 -40q106 0 179 39t118 115t64.5 185.5t19.5 250.5t-19.5 251t-64.5 184.5t-118 114.5t-179 40t-180 -40t-119 -114.5t-64.5 -184.5t-19.5 -249zM350 1597l246 246h86l246 -246l-92 -73l-191 186h-12l-195 -186z" />
<glyph unicode="&#xd5;" horiz-adv-x="1267" d="M106 680v20q0 154 28 284t90.5 225.5t163.5 149.5t247 54q145 0 245.5 -54t163 -149.5t90 -225.5t27.5 -284v-20q0 -154 -27.5 -284t-90 -225t-163 -149.5t-245.5 -54.5t-246.5 54.5t-164 149.5t-90.5 225t-28 284zM252 692q0 -141 19.5 -250.5t64.5 -185.5t118.5 -116 t180.5 -40q106 0 179 39t118 115t64.5 185.5t19.5 250.5t-19.5 251t-64.5 184.5t-118 114.5t-179 40t-180 -40t-119 -114.5t-64.5 -184.5t-19.5 -249zM336 1645q43 86 94 125.5t98 39.5q39 0 67 -14t60 -39l35 -24q20 -14 41 -23.5t43 -9.5q31 0 55.5 22.5t44.5 63.5l74 -70 q-27 -66 -73 -104.5t-107 -38.5q-37 0 -66.5 13t-60.5 36l-31 20q-23 16 -40 26.5t-40 10.5q-35 0 -62.5 -29.5t-49.5 -74.5z" />
<glyph unicode="&#xd6;" horiz-adv-x="1267" d="M106 680v20q0 154 28 284t90.5 225.5t163.5 149.5t247 54q145 0 245.5 -54t163 -149.5t90 -225.5t27.5 -284v-20q0 -154 -27.5 -284t-90 -225t-163 -149.5t-245.5 -54.5t-246.5 54.5t-164 149.5t-90.5 225t-28 284zM252 692q0 -141 19.5 -250.5t64.5 -185.5t118.5 -116 t180.5 -40q106 0 179 39t118 115t64.5 185.5t19.5 250.5t-19.5 251t-64.5 184.5t-118 114.5t-179 40t-180 -40t-119 -114.5t-64.5 -184.5t-19.5 -249zM379 1661v10q0 53 28.5 78t67.5 25q43 0 70.5 -25t27.5 -78v-10q0 -53 -27.5 -77.5t-70.5 -24.5q-39 0 -67.5 24.5 t-28.5 77.5zM698 1661v10q0 53 30 78t69 25q41 0 69.5 -25t28.5 -78v-10q0 -53 -28.5 -77.5t-69.5 -24.5q-39 0 -69 24.5t-30 77.5z" />
<glyph unicode="&#xd7;" d="M133 877l90 84l303 -304l305 304l84 -84l-301 -308l299 -297l-84 -90l-303 303l-303 -303l-86 86l303 303z" />
<glyph unicode="&#xd8;" horiz-adv-x="1267" d="M106 680v20q0 154 28 284t90.5 225.5t163.5 149.5t247 54q137 0 239 -53l93 209l104 -47l-100 -230q100 -94 145 -246.5t45 -345.5v-20q0 -154 -27.5 -284t-90 -225t-163 -149.5t-245.5 -54.5q-127 0 -227 45l-95 -217l-104 55l98 226q-106 92 -153.5 248.5t-47.5 355.5z M252 692q0 -164 26.5 -285.5t90.5 -195.5l450 1024q-80 45 -184 45q-106 0 -180 -40t-119 -114.5t-64.5 -184.5t-19.5 -249zM463 135q74 -35 172 -35q106 0 179 39t118 115t64.5 185.5t19.5 250.5q0 154 -24.5 271.5t-82.5 195.5z" />
<glyph unicode="&#xd9;" horiz-adv-x="1302" d="M172 498v882h135v-868q0 -102 16.5 -179t56.5 -129t106.5 -78t164.5 -26t165 26t107 78t56 129t16 179v868h135v-882q0 -129 -24.5 -228.5t-81.5 -166t-148.5 -101.5t-224.5 -35t-224 35t-147.5 101.5t-82 166t-25.5 228.5zM395 1700l78 121l387 -254l-59 -94z" />
<glyph unicode="&#xda;" horiz-adv-x="1302" d="M172 498v882h135v-868q0 -102 16.5 -179t56.5 -129t106.5 -78t164.5 -26t165 26t107 78t56 129t16 179v868h135v-882q0 -129 -24.5 -228.5t-81.5 -166t-148.5 -101.5t-224.5 -35t-224 35t-147.5 101.5t-82 166t-25.5 228.5zM463 1567l385 254l80 -121l-408 -227z" />
<glyph unicode="&#xdb;" horiz-adv-x="1302" d="M172 498v882h135v-868q0 -102 16.5 -179t56.5 -129t106.5 -78t164.5 -26t165 26t107 78t56 129t16 179v868h135v-882q0 -129 -24.5 -228.5t-81.5 -166t-148.5 -101.5t-224.5 -35t-224 35t-147.5 101.5t-82 166t-25.5 228.5zM373 1597l245 246h87l245 -246l-92 -73 l-190 186h-13l-194 -186z" />
<glyph unicode="&#xdc;" horiz-adv-x="1302" d="M172 498v882h135v-868q0 -102 16.5 -179t56.5 -129t106.5 -78t164.5 -26t165 26t107 78t56 129t16 179v868h135v-882q0 -129 -24.5 -228.5t-81.5 -166t-148.5 -101.5t-224.5 -35t-224 35t-147.5 101.5t-82 166t-25.5 228.5zM395 1661v10q0 53 29 78t68 25q43 0 70.5 -25 t27.5 -78v-10q0 -53 -27.5 -77.5t-70.5 -24.5q-39 0 -68 24.5t-29 77.5zM715 1661v10q0 53 29.5 78t68.5 25q41 0 69.5 -25t28.5 -78v-10q0 -53 -28.5 -77.5t-69.5 -24.5q-39 0 -68.5 24.5t-29.5 77.5z" />
<glyph unicode="&#xdd;" horiz-adv-x="1048" d="M53 1380h150q68 -207 146.5 -403.5t170.5 -376.5h6q92 180 173 377t147 403h149q-41 -123 -89 -245.5t-100 -241.5t-107.5 -230.5t-108.5 -209.5v-453h-131v455q-55 98 -110.5 209.5t-108 229.5t-100.5 240.5t-87 245.5zM377 1567l385 254l80 -121l-408 -227z" />
<glyph unicode="&#xde;" horiz-adv-x="1079" d="M178 0v1380h135v-237h152q135 0 246.5 -23.5t183.5 -97.5q47 -47 73.5 -123t26.5 -184q0 -225 -123 -336q-59 -53 -147 -76.5t-201 -23.5h-211v-279h-135zM313 412h189q82 0 146.5 10t109.5 43t68.5 92t23.5 158q0 158 -94 233q-43 33 -108.5 47.5t-147.5 14.5h-187v-598 z" />
<glyph unicode="&#xdf;" horiz-adv-x="1019" d="M137 -297v1681q152 47 303 48q84 0 159 -20.5t130 -62.5t88 -107.5t33 -156.5q0 -104 -49 -186t-144 -117v-4q74 -16 127.5 -52t87 -84t50 -102.5t16.5 -109.5q0 -104 -38 -184t-101.5 -135.5t-147.5 -83t-176 -27.5q-16 0 -36.5 1t-37.5 3l5 98q18 -2 26 -2h17 q76 0 142 20.5t114.5 60.5t76 101.5t27.5 145.5q0 72 -24.5 126t-69.5 91t-105.5 56.5t-134.5 19.5v100q121 8 186.5 70.5t65.5 185.5q0 66 -22.5 112t-61.5 75.5t-91 43t-112 13.5q-51 0 -97 -7t-83 -20v-1591h-123z" />
<glyph unicode="&#xe0;" horiz-adv-x="991" d="M80 260q0 94 49 173t141 122q68 31 155 46t228 15h62v56q0 57 -12.5 103t-42 77t-81 47t-128.5 16q-70 0 -146 -19t-131 -44l-20 109q66 29 150.5 47t168.5 18q168 0 266.5 -82t98.5 -264v-496q0 -57 10 -82.5t61 -25.5h9v-82q-10 -4 -31 -7t-37 -3q-45 0 -83 24.5 t-48 83.5q-66 -59 -146.5 -92t-183.5 -33q-63 0 -119.5 19.5t-98.5 57.5t-66.5 92t-24.5 124zM211 268q0 -78 50 -133t155 -55q92 0 173 41t126 94v301h-70q-76 0 -138.5 -6t-115.5 -23q-74 -25 -127 -78t-53 -141zM256 1343l78 121l387 -254l-59 -96z" />
<glyph unicode="&#xe1;" horiz-adv-x="991" d="M80 260q0 94 49 173t141 122q68 31 155 46t228 15h62v56q0 57 -12.5 103t-42 77t-81 47t-128.5 16q-70 0 -146 -19t-131 -44l-20 109q66 29 150.5 47t168.5 18q168 0 266.5 -82t98.5 -264v-496q0 -57 10 -82.5t61 -25.5h9v-82q-10 -4 -31 -7t-37 -3q-45 0 -83 24.5 t-48 83.5q-66 -59 -146.5 -92t-183.5 -33q-63 0 -119.5 19.5t-98.5 57.5t-66.5 92t-24.5 124zM211 268q0 -78 50 -133t155 -55q92 0 173 41t126 94v301h-70q-76 0 -138.5 -6t-115.5 -23q-74 -25 -127 -78t-53 -141zM295 1210l385 254l80 -121l-408 -229z" />
<glyph unicode="&#xe2;" horiz-adv-x="991" d="M80 260q0 94 49 173t141 122q68 31 155 46t228 15h62v56q0 57 -12.5 103t-42 77t-81 47t-128.5 16q-70 0 -146 -19t-131 -44l-20 109q66 29 150.5 47t168.5 18q168 0 266.5 -82t98.5 -264v-496q0 -57 10 -82.5t61 -25.5h9v-82q-10 -4 -31 -7t-37 -3q-45 0 -83 24.5 t-48 83.5q-66 -59 -146.5 -92t-183.5 -33q-63 0 -119.5 19.5t-98.5 57.5t-66.5 92t-24.5 124zM209 1239l246 248h86l245 -248l-92 -74l-190 189h-12l-195 -189zM211 268q0 -78 50 -133t155 -55q92 0 173 41t126 94v301h-70q-76 0 -138.5 -6t-115.5 -23q-74 -25 -127 -78 t-53 -141z" />
<glyph unicode="&#xe3;" horiz-adv-x="991" d="M80 260q0 94 49 173t141 122q68 31 155 46t228 15h62v56q0 57 -12.5 103t-42 77t-81 47t-128.5 16q-70 0 -146 -19t-131 -44l-20 109q66 29 150.5 47t168.5 18q168 0 266.5 -82t98.5 -264v-496q0 -57 10 -82.5t61 -25.5h9v-82q-10 -4 -31 -7t-37 -3q-45 0 -83 24.5 t-48 83.5q-66 -59 -146.5 -92t-183.5 -33q-63 0 -119.5 19.5t-98.5 57.5t-66.5 92t-24.5 124zM193 1286q43 86 94 125t98 39q39 0 66.5 -14.5t60.5 -36.5l35 -27q20 -12 40.5 -21.5t43.5 -9.5q57 0 100 84l74 -67q-27 -66 -73 -105t-107 -39q-37 0 -67 12.5t-60 35.5l-31 22 q-23 16 -40 25.5t-40 9.5q-35 0 -62.5 -28.5t-50.5 -73.5zM211 268q0 -78 50 -133t155 -55q92 0 173 41t126 94v301h-70q-76 0 -138.5 -6t-115.5 -23q-74 -25 -127 -78t-53 -141z" />
<glyph unicode="&#xe4;" horiz-adv-x="991" d="M80 260q0 94 49 173t141 122q68 31 155 46t228 15h62v56q0 57 -12.5 103t-42 77t-81 47t-128.5 16q-70 0 -146 -19t-131 -44l-20 109q66 29 150.5 47t168.5 18q168 0 266.5 -82t98.5 -264v-496q0 -57 10 -82.5t61 -25.5h9v-82q-10 -4 -31 -7t-37 -3q-45 0 -83 24.5 t-48 83.5q-66 -59 -146.5 -92t-183.5 -33q-63 0 -119.5 19.5t-98.5 57.5t-66.5 92t-24.5 124zM211 268q0 -78 50 -133t155 -55q92 0 173 41t126 94v301h-70q-76 0 -138.5 -6t-115.5 -23q-74 -25 -127 -78t-53 -141zM233 1303v10q0 53 29 78.5t68 25.5q43 0 70.5 -25.5 t27.5 -78.5v-10q0 -53 -27.5 -77t-70.5 -24q-39 0 -68 23.5t-29 77.5zM553 1303v10q0 53 29.5 78.5t68.5 25.5q41 0 70 -25.5t29 -78.5v-10q0 -53 -29 -77t-70 -24q-39 0 -68.5 23.5t-29.5 77.5z" />
<glyph unicode="&#xe5;" horiz-adv-x="991" d="M80 260q0 94 49 173t141 122q68 31 155 46t228 15h62v56q0 57 -12.5 103t-42 77t-81 47t-128.5 16q-70 0 -146 -19t-131 -44l-20 109q66 29 150.5 47t168.5 18q168 0 266.5 -82t98.5 -264v-496q0 -57 10 -82.5t61 -25.5h9v-82q-10 -4 -31 -7t-37 -3q-45 0 -83 24.5 t-48 83.5q-66 -59 -146.5 -92t-183.5 -33q-63 0 -119.5 19.5t-98.5 57.5t-66.5 92t-24.5 124zM211 268q0 -78 50 -133t155 -55q92 0 173 41t126 94v301h-70q-76 0 -138.5 -6t-115.5 -23q-74 -25 -127 -78t-53 -141zM319 1341q0 76 50.5 126.5t126.5 50.5q78 0 127 -50.5 t49 -126.5q0 -78 -49.5 -128t-126.5 -50q-76 0 -126.5 50.5t-50.5 127.5zM414 1341q0 -39 21.5 -62.5t60.5 -23.5t60.5 24t21.5 62q0 37 -21.5 60.5t-60.5 23.5t-60.5 -23.5t-21.5 -60.5z" />
<glyph unicode="&#xe6;" horiz-adv-x="1650" d="M80 260q0 94 49 170t141 117q68 31 158 46t231 15h62v64q0 57 -12.5 103t-42 77t-80.5 47t-129 16q-72 0 -146.5 -19t-130.5 -44l-20 109q66 29 149.5 47t169.5 18q123 0 209 -43t127 -135q51 80 133 129t201 49q174 0 271.5 -96t125.5 -277q6 -35 8 -70.5t2 -76.5v-41 h-706q10 -176 92 -279.5t242 -103.5q74 0 152.5 17.5t129.5 43.5l21 -108q-61 -31 -144 -49.5t-165 -18.5q-98 0 -180.5 26.5t-137.5 82.5q-31 31 -53 67q-68 -78 -168 -127t-233 -49q-70 0 -129.5 19.5t-103.5 57.5t-68.5 92t-24.5 124zM217 268q0 -78 50 -133t155 -55 q102 0 190 45t148 121q-39 109 -39 252v10h-70q-76 0 -138 -6t-116 -23q-76 -25 -128 -74t-52 -137zM852 571h571q-6 166 -70.5 251t-197.5 85q-125 0 -197 -76q-51 -49 -75.5 -111.5t-30.5 -148.5z" />
<glyph unicode="&#xe7;" horiz-adv-x="909" d="M96 487v7q0 252 114 392t339 140q86 0 161.5 -23.5t125.5 -54.5l-21 -119q-37 29 -108.5 53.5t-149.5 24.5q-330 0 -330 -411q0 -205 74 -309.5t246 -104.5q72 0 142.5 17.5t121.5 43.5l20 -108q-57 -29 -125.5 -46.5t-142.5 -21.5l-20 -86q188 -12 188 -170 q0 -92 -62.5 -140t-164.5 -48q-45 0 -91 8t-77 18l24 99q35 -10 70 -15.5t64 -5.5q59 0 83.5 19.5t24.5 58.5q0 47 -39 68.5t-147 15.5l-10 12l43 172q-137 18 -220 101q-68 68 -100.5 172t-32.5 241z" />
<glyph unicode="&#xe8;" d="M96 489v5q0 98 23.5 193t75 170t132.5 122t195 47q176 0 272.5 -96t125.5 -277q6 -35 9 -81t3 -87v-43h-703q10 -176 90 -268t240 -92q70 0 149.5 17.5t131.5 43.5l20 -108q-61 -31 -144 -49.5t-163 -18.5q-98 0 -181 26.5t-136 82.5q-68 68 -104 172t-36 241zM227 551 h572q-8 166 -72.5 261t-198.5 95q-125 0 -196 -76q-49 -49 -74 -121.5t-31 -158.5zM287 1343l78 121l387 -254l-60 -96z" />
<glyph unicode="&#xe9;" d="M96 489v5q0 98 23.5 193t75 170t132.5 122t195 47q176 0 272.5 -96t125.5 -277q6 -35 9 -81t3 -87v-43h-703q10 -176 90 -268t240 -92q70 0 149.5 17.5t131.5 43.5l20 -108q-61 -31 -144 -49.5t-163 -18.5q-98 0 -181 26.5t-136 82.5q-68 68 -104 172t-36 241zM227 551 h572q-8 166 -72.5 261t-198.5 95q-125 0 -196 -76q-49 -49 -74 -121.5t-31 -158.5zM338 1210l385 254l80 -121l-408 -229z" />
<glyph unicode="&#xea;" d="M96 489v5q0 98 23.5 193t75 170t132.5 122t195 47q176 0 272.5 -96t125.5 -277q6 -35 9 -81t3 -87v-43h-703q10 -176 90 -268t240 -92q70 0 149.5 17.5t131.5 43.5l20 -108q-61 -31 -144 -49.5t-163 -18.5q-98 0 -181 26.5t-136 82.5q-68 68 -104 172t-36 241zM227 551 h572q-8 166 -72.5 261t-198.5 95q-125 0 -196 -76q-49 -49 -74 -121.5t-31 -158.5zM248 1239l246 248h86l245 -248l-92 -74l-190 189h-13l-194 -189z" />
<glyph unicode="&#xeb;" d="M96 489v5q0 98 23.5 193t75 170t132.5 122t195 47q176 0 272.5 -96t125.5 -277q6 -35 9 -81t3 -87v-43h-703q10 -176 90 -268t240 -92q70 0 149.5 17.5t131.5 43.5l20 -108q-61 -31 -144 -49.5t-163 -18.5q-98 0 -181 26.5t-136 82.5q-68 68 -104 172t-36 241zM227 551 h572q-8 166 -72.5 261t-198.5 95q-125 0 -196 -76q-49 -49 -74 -121.5t-31 -158.5zM276 1303v10q0 53 29 78.5t68 25.5q43 0 70.5 -25.5t27.5 -78.5v-10q0 -53 -27.5 -77t-70.5 -24q-39 0 -68 23.5t-29 77.5zM596 1303v10q0 53 29.5 78.5t68.5 25.5q41 0 70 -25.5t29 -78.5 v-10q0 -53 -29 -77t-70 -24q-39 0 -68.5 23.5t-29.5 77.5z" />
<glyph unicode="&#xec;" horiz-adv-x="430" d="M-53 1343l78 121l387 -254l-60 -96zM154 0v993h122v-993h-122z" />
<glyph unicode="&#xed;" horiz-adv-x="430" d="M47 1210l385 254l80 -121l-408 -229zM154 0v993h122v-993h-122z" />
<glyph unicode="&#xee;" horiz-adv-x="430" d="M-74 1239l246 248h86l246 -248l-92 -74l-191 189h-12l-195 -189zM154 0v993h122v-993h-122z" />
<glyph unicode="&#xef;" horiz-adv-x="430" d="M-43 1303v10q0 53 28.5 78.5t67.5 25.5q43 0 71 -25.5t28 -78.5v-10q0 -53 -28 -77t-71 -24q-39 0 -67.5 23.5t-28.5 77.5zM154 0v993h122v-993h-122zM276 1303v10q0 53 30 78.5t69 25.5q41 0 69.5 -25.5t28.5 -78.5v-10q0 -53 -28.5 -77t-69.5 -24q-39 0 -69 23.5 t-30 77.5z" />
<glyph unicode="&#xf0;" horiz-adv-x="1013" d="M96 496q0 111 22.5 205t71 162.5t122 107.5t177.5 39q129 0 252 -95q-29 106 -82 187.5t-143 142.5l-166 -129l-57 66l139 110q-41 23 -88 40.5t-102 31.5l90 63q96 -27 184 -69l137 110l60 -67l-113 -88q74 -47 130 -113.5t95 -157t59.5 -206t20.5 -258.5 q0 -145 -21.5 -259t-70.5 -192t-127 -119t-188 -41q-92 0 -167 36t-127 104.5t-80 167t-28 221.5zM225 500q0 -201 75 -309.5t206 -108.5q139 0 204.5 112.5t65.5 370.5q0 66 -3 125.5t-11 112.5q-123 98 -256 98q-141 0 -211 -97t-70 -304z" />
<glyph unicode="&#xf1;" horiz-adv-x="1077" d="M137 0v993h101l16 -125q76 76 169 117t191 41q168 0 248 -82q45 -45 64.5 -113.5t19.5 -171.5v-659h-123v637q0 78 -12 130t-43 83q-27 29 -68 41t-100 12q-86 0 -177 -43t-163 -121v-739h-123zM254 1286q43 86 94 125t98 39q39 0 67 -14.5t60 -36.5l35 -27 q20 -12 41 -21.5t43 -9.5q57 0 101 84l73 -67q-27 -66 -72.5 -105t-107.5 -39q-37 0 -66.5 12.5t-60.5 35.5l-31 22q-23 16 -40 25.5t-39 9.5q-35 0 -63 -28.5t-50 -73.5z" />
<glyph unicode="&#xf2;" horiz-adv-x="1062" d="M96 496v2q0 256 106.5 392t327.5 136q223 0 330 -135t107 -391v-4q0 -256 -106.5 -392.5t-330.5 -136.5q-221 0 -327.5 136.5t-106.5 392.5zM227 496q0 -207 73 -312.5t232 -105.5q160 0 232 105.5t72 312.5q0 209 -72 314t-232 105t-232.5 -105t-72.5 -314zM291 1343 l78 121l387 -254l-60 -96z" />
<glyph unicode="&#xf3;" horiz-adv-x="1062" d="M96 496v2q0 256 106.5 392t327.5 136q223 0 330 -135t107 -391v-4q0 -256 -106.5 -392.5t-330.5 -136.5q-221 0 -327.5 136.5t-106.5 392.5zM227 496q0 -207 73 -312.5t232 -105.5q160 0 232 105.5t72 312.5q0 209 -72 314t-232 105t-232.5 -105t-72.5 -314zM346 1210 l385 254l80 -121l-408 -229z" />
<glyph unicode="&#xf4;" horiz-adv-x="1062" d="M96 496v2q0 256 106.5 392t327.5 136q223 0 330 -135t107 -391v-4q0 -256 -106.5 -392.5t-330.5 -136.5q-221 0 -327.5 136.5t-106.5 392.5zM227 496q0 -207 73 -312.5t232 -105.5q160 0 232 105.5t72 312.5q0 209 -72 314t-232 105t-232.5 -105t-72.5 -314zM246 1239 l246 248h86l245 -248l-92 -74l-190 189h-13l-194 -189z" />
<glyph unicode="&#xf5;" horiz-adv-x="1062" d="M96 496v2q0 256 106.5 392t327.5 136q223 0 330 -135t107 -391v-4q0 -256 -106.5 -392.5t-330.5 -136.5q-221 0 -327.5 136.5t-106.5 392.5zM227 496q0 -207 73 -312.5t232 -105.5q160 0 232 105.5t72 312.5q0 209 -72 314t-232 105t-232.5 -105t-72.5 -314zM229 1286 q43 86 94.5 125t98.5 39q39 0 66.5 -14.5t60.5 -36.5l35 -27q20 -12 40.5 -21.5t43.5 -9.5q57 0 100 84l74 -67q-27 -66 -73 -105t-107 -39q-37 0 -67 12.5t-60 35.5l-31 22q-23 16 -40.5 25.5t-39.5 9.5q-35 0 -62.5 -28.5t-50.5 -73.5z" />
<glyph unicode="&#xf6;" horiz-adv-x="1062" d="M96 496v2q0 256 106.5 392t327.5 136q223 0 330 -135t107 -391v-4q0 -256 -106.5 -392.5t-330.5 -136.5q-221 0 -327.5 136.5t-106.5 392.5zM227 496q0 -207 73 -312.5t232 -105.5q160 0 232 105.5t72 312.5q0 209 -72 314t-232 105t-232.5 -105t-72.5 -314zM281 1303v10 q0 53 28.5 78.5t67.5 25.5q43 0 70.5 -25.5t27.5 -78.5v-10q0 -53 -27.5 -77t-70.5 -24q-39 0 -67.5 23.5t-28.5 77.5zM600 1303v10q0 53 29.5 78.5t68.5 25.5q41 0 70 -25.5t29 -78.5v-10q0 -53 -29 -77t-70 -24q-39 0 -68.5 23.5t-29.5 77.5z" />
<glyph unicode="&#xf7;" d="M123 508v121h778v-121h-778zM422 231v25q0 55 24.5 82t67.5 27q94 0 94 -109v-25q0 -111 -94 -110q-43 0 -67.5 27.5t-24.5 82.5zM422 885v22q0 55 24.5 83t67.5 28q94 0 94 -111v-22q0 -113 -94 -113q-43 0 -67.5 27.5t-24.5 85.5z" />
<glyph unicode="&#xf8;" horiz-adv-x="1062" d="M96 496v2q0 256 106.5 392t327.5 136q96 0 177 -29l77 170l97 -41l-82 -178q168 -129 168 -448v-4q0 -256 -106.5 -392.5t-330.5 -136.5q-98 0 -165 27l-76 -166l-96 43l77 168q-90 63 -132 178t-42 279zM227 496q0 -117 22.5 -202t72.5 -138l337 737q-57 23 -127 22 q-160 0 -232.5 -105t-72.5 -314zM412 98q25 -10 55.5 -15t64.5 -5q160 0 232 105.5t72 312.5q0 236 -91 333z" />
<glyph unicode="&#xf9;" horiz-adv-x="1048" d="M131 453v540h123v-538q0 -72 2 -122t9 -88t20.5 -64.5t38.5 -47.5q39 -33 90 -44t110 -11t110.5 11t90.5 44q25 20 38 47t20.5 65t9.5 88t2 122v538h123v-540q0 -113 -11.5 -203t-51.5 -152.5t-119 -96.5t-212 -34t-210.5 34t-118.5 96.5t-52.5 152.5t-11.5 203z M262 1343l78 121l387 -254l-59 -96z" />
<glyph unicode="&#xfa;" horiz-adv-x="1048" d="M131 453v540h123v-538q0 -72 2 -122t9 -88t20.5 -64.5t38.5 -47.5q39 -33 90 -44t110 -11t110.5 11t90.5 44q25 20 38 47t20.5 65t9.5 88t2 122v538h123v-540q0 -113 -11.5 -203t-51.5 -152.5t-119 -96.5t-212 -34t-210.5 34t-118.5 96.5t-52.5 152.5t-11.5 203z M348 1210l385 254l80 -121l-407 -229z" />
<glyph unicode="&#xfb;" horiz-adv-x="1048" d="M131 453v540h123v-538q0 -72 2 -122t9 -88t20.5 -64.5t38.5 -47.5q39 -33 90 -44t110 -11t110.5 11t90.5 44q25 20 38 47t20.5 65t9.5 88t2 122v538h123v-540q0 -113 -11.5 -203t-51.5 -152.5t-119 -96.5t-212 -34t-210.5 34t-118.5 96.5t-52.5 152.5t-11.5 203z M242 1239l245 248h86l246 -248l-92 -74l-190 189h-13l-194 -189z" />
<glyph unicode="&#xfc;" horiz-adv-x="1048" d="M131 453v540h123v-538q0 -72 2 -122t9 -88t20.5 -64.5t38.5 -47.5q39 -33 90 -44t110 -11t110.5 11t90.5 44q25 20 38 47t20.5 65t9.5 88t2 122v538h123v-540q0 -113 -11.5 -203t-51.5 -152.5t-119 -96.5t-212 -34t-210.5 34t-118.5 96.5t-52.5 152.5t-11.5 203z M266 1303v10q0 53 29 78.5t67 25.5q43 0 71 -25.5t28 -78.5v-10q0 -53 -27.5 -77t-71.5 -24q-39 0 -67.5 23.5t-28.5 77.5zM586 1303v10q0 53 29.5 78.5t68.5 25.5q41 0 69.5 -25.5t28.5 -78.5v-10q0 -53 -28.5 -77t-69.5 -24q-39 0 -68.5 23.5t-29.5 77.5z" />
<glyph unicode="&#xfd;" horiz-adv-x="890" d="M20 993h138q68 -311 146.5 -540.5t164.5 -376.5q72 162 143.5 393t124.5 524h133q-41 -170 -79.5 -315.5t-79.5 -273.5t-85 -243.5t-96 -226.5q-47 -104 -93 -172.5t-92 -109.5t-95 -57.5t-103 -16.5q-61 0 -110 12l8 101q23 -6 46.5 -9.5t39.5 -3.5q35 0 64.5 7.5 t56.5 29.5q47 39 85 99.5t71 140.5q-109 168 -203 430t-185 608zM307 1210l385 254l80 -121l-407 -229z" />
<glyph unicode="&#xfe;" horiz-adv-x="1069" d="M137 -389v1790h123v-492q84 66 169 91.5t144 25.5q80 0 153 -27.5t128 -91.5q57 -63 88 -162.5t31 -222.5v-10q0 -143 -38 -255t-110 -183q-111 -106 -286 -107q-72 0 -141.5 16.5t-137.5 51.5v-424h-123zM260 158q53 -35 119.5 -54.5t126.5 -19.5q98 0 162.5 35 t102.5 92t54.5 132t16.5 155q0 82 -16.5 171t-73.5 152q-74 80 -201 80q-86 0 -162 -38t-129 -87v-618z" />
<glyph unicode="&#xff;" horiz-adv-x="890" d="M20 993h138q68 -311 146.5 -540.5t164.5 -376.5q72 162 143.5 393t124.5 524h133q-41 -170 -79.5 -315.5t-79.5 -273.5t-85 -243.5t-96 -226.5q-47 -104 -93 -172.5t-92 -109.5t-95 -57.5t-103 -16.5q-61 0 -110 12l8 101q23 -6 46.5 -9.5t39.5 -3.5q35 0 64.5 7.5 t56.5 29.5q47 39 85 99.5t71 140.5q-109 168 -203 430t-185 608zM195 1303v10q0 53 28.5 78.5t67.5 25.5q43 0 70.5 -25.5t27.5 -78.5v-10q0 -53 -27.5 -77t-70.5 -24q-39 0 -67.5 23.5t-28.5 77.5zM514 1303v10q0 53 29.5 78.5t68.5 25.5q41 0 70 -25.5t29 -78.5v-10 q0 -53 -29 -77t-70 -24q-39 0 -68.5 23.5t-29.5 77.5z" />
<glyph unicode="&#x152;" horiz-adv-x="1699" d="M106 680v20q0 154 29 284t91.5 225.5t161.5 149.5t241 54q82 0 146.5 -27.5t96.5 -58.5v53h736l-17 -133h-596v-465h527l-15 -133h-512v-516h602l-14 -133h-715v72q-43 -49 -116.5 -77t-149.5 -28q-133 0 -227 54.5t-153.5 149.5t-87.5 225t-28 284zM252 692 q0 -281 84 -436.5t280 -155.5q78 0 141.5 28t102.5 75v985q-41 41 -97 67.5t-134 26.5q-106 0 -179 -40t-117 -115.5t-62.5 -185.5t-18.5 -249z" />
<glyph unicode="&#x153;" horiz-adv-x="1767" d="M96 496v2q0 256 106.5 392t327.5 136q272 0 377 -221q47 104 136.5 162.5t220.5 58.5q174 0 271 -96t126 -277q6 -35 9 -81t3 -87v-43h-704q10 -176 91 -268t238 -92q74 0 153 17.5t130 43.5l21 -108q-61 -31 -144.5 -49.5t-163.5 -18.5q-98 0 -181 26.5t-138 82.5 q-20 20 -37.5 44.5t-34.5 59.5q-55 -106 -146 -159.5t-227 -53.5q-221 0 -327.5 136.5t-106.5 392.5zM227 496q0 -207 73 -312.5t232 -105.5q303 0 304 397v37q-2 201 -75 302t-229 101q-160 0 -232.5 -105t-72.5 -314zM967 551h573q-8 166 -72.5 261t-197.5 95 q-125 0 -197 -76q-49 -49 -74.5 -121.5t-31.5 -158.5z" />
<glyph unicode="&#x178;" horiz-adv-x="1048" d="M53 1380h150q68 -207 146.5 -403.5t170.5 -376.5h6q92 180 173 377t147 403h149q-41 -123 -89 -245.5t-100 -241.5t-107.5 -230.5t-108.5 -209.5v-453h-131v455q-55 98 -110.5 209.5t-108 229.5t-100.5 240.5t-87 245.5zM268 1661v10q0 53 29 78t68 25q43 0 70.5 -25 t27.5 -78v-10q0 -53 -27.5 -77.5t-70.5 -24.5q-39 0 -68 24.5t-29 77.5zM588 1661v10q0 53 29.5 78t68.5 25q41 0 69.5 -25t28.5 -78v-10q0 -53 -28.5 -77.5t-69.5 -24.5q-39 0 -68.5 24.5t-29.5 77.5z" />
<glyph unicode="&#x2c6;" horiz-adv-x="657" d="M41 1239l246 248h86l245 -248l-92 -74l-190 189h-12l-195 -189z" />
<glyph unicode="&#x2dc;" horiz-adv-x="657" d="M23 1286q43 86 94 125t98 39q39 0 66.5 -14.5t60.5 -36.5l35 -27q20 -12 40.5 -21.5t43.5 -9.5q57 0 100 84l74 -67q-27 -66 -73 -105t-107 -39q-37 0 -67 12.5t-60 35.5l-31 22q-23 16 -40 25.5t-40 9.5q-35 0 -62.5 -28.5t-50.5 -73.5z" />
<glyph unicode="&#x2000;" horiz-adv-x="938" />
<glyph unicode="&#x2001;" horiz-adv-x="1876" />
<glyph unicode="&#x2002;" horiz-adv-x="938" />
<glyph unicode="&#x2003;" horiz-adv-x="1876" />
<glyph unicode="&#x2004;" horiz-adv-x="625" />
<glyph unicode="&#x2005;" horiz-adv-x="469" />
<glyph unicode="&#x2006;" horiz-adv-x="312" />
<glyph unicode="&#x2007;" horiz-adv-x="312" />
<glyph unicode="&#x2008;" horiz-adv-x="234" />
<glyph unicode="&#x2009;" horiz-adv-x="375" />
<glyph unicode="&#x200a;" horiz-adv-x="104" />
<glyph unicode="&#x2010;" horiz-adv-x="575" d="M102 455v120h371v-120h-371z" />
<glyph unicode="&#x2011;" horiz-adv-x="575" d="M102 455v120h371v-120h-371z" />
<glyph unicode="&#x2012;" horiz-adv-x="575" d="M102 455v120h371v-120h-371z" />
<glyph unicode="&#x2013;" horiz-adv-x="1005" d="M6 461v108h993v-108h-993z" />
<glyph unicode="&#x2014;" horiz-adv-x="1998" d="M6 461v108h1987v-108h-1987z" />
<glyph unicode="&#x2018;" horiz-adv-x="380" d="M86 1006zM86 1129q0 59 30.5 164.5t102.5 248.5l88 -36q-31 -66 -54.5 -123.5t-39.5 -112.5q29 -8 52.5 -37t23.5 -84v-28q0 -115 -101 -115q-102 0 -102 123z" />
<glyph unicode="&#x2019;" horiz-adv-x="380" d="M76 971zM76 1007q31 66 54.5 123.5t39.5 112.5q-29 8 -52.5 37t-23.5 84v28q0 115 101 115q102 0 102 -123q0 -59 -30.5 -164.5t-102.5 -248.5z" />
<glyph unicode="&#x201a;" horiz-adv-x="380" d="M76 0zM76 -279q31 66 54.5 123.5t39.5 112.5q-29 8 -52.5 37t-23.5 84v28q0 115 101 115q102 0 102 -123q0 -59 -30.5 -164.5t-102.5 -248.5z" />
<glyph unicode="&#x201c;" horiz-adv-x="745" d="M86 1006zM86 1129q0 59 30.5 164.5t102.5 248.5l88 -36q-31 -66 -54.5 -123.5t-39.5 -112.5q29 -8 52.5 -37t23.5 -84v-28q0 -115 -101 -115q-102 0 -102 123zM451 1129q0 59 30.5 164.5t102.5 248.5l88 -36q-31 -66 -54.5 -123.5t-39.5 -112.5q29 -8 52.5 -37t23.5 -84 v-28q0 -115 -101 -115q-102 0 -102 123z" />
<glyph unicode="&#x201d;" horiz-adv-x="745" d="M76 971zM76 1007q31 66 54.5 123.5t39.5 112.5q-29 8 -52.5 37t-23.5 84v28q0 115 101 115q102 0 102 -123q0 -59 -30.5 -164.5t-102.5 -248.5zM438 1007q31 66 54.5 123.5t39.5 112.5q-29 8 -52.5 37t-23.5 84v28q0 115 101 115q102 0 102 -123q0 -59 -30.5 -164.5 t-102.5 -248.5z" />
<glyph unicode="&#x201e;" horiz-adv-x="745" d="M76 0zM76 -279q31 66 54.5 123.5t39.5 112.5q-29 8 -52.5 37t-23.5 84v28q0 115 101 115q102 0 102 -123q0 -59 -30.5 -164.5t-102.5 -248.5zM438 -279q31 66 54.5 123.5t39.5 112.5q-29 8 -52.5 37t-23.5 84v28q0 115 101 115q102 0 102 -123q0 -59 -30.5 -164.5 t-102.5 -248.5z" />
<glyph unicode="&#x2022;" horiz-adv-x="737" d="M145 352v449h447v-449h-447z" />
<glyph unicode="&#x2026;" horiz-adv-x="1191" d="M104 84v22q0 57 27 86t72 29q47 0 72.5 -28.5t25.5 -86.5v-22q0 -59 -25.5 -88t-72.5 -29q-45 0 -72 29t-27 88zM500 84v22q0 57 25.5 86t70.5 29q47 0 72.5 -28.5t25.5 -86.5v-22q0 -59 -25.5 -88t-72.5 -29q-45 0 -70.5 29t-25.5 88zM893 84v22q0 57 25.5 86t70.5 29 q47 0 72.5 -28.5t25.5 -86.5v-22q0 -59 -25.5 -88t-72.5 -29q-45 0 -70.5 29t-25.5 88z" />
<glyph unicode="&#x202f;" horiz-adv-x="375" />
<glyph unicode="&#x2039;" horiz-adv-x="675" d="M115 498l344 475l98 -64l-299 -411l297 -410l-96 -63z" />
<glyph unicode="&#x203a;" horiz-adv-x="675" d="M119 909l98 64l344 -475l-344 -473l-96 63l297 410z" />
<glyph unicode="&#x205f;" horiz-adv-x="469" />
<glyph unicode="&#x20ac;" d="M16 436l21 125h117q-2 37 -2 76v61v33h-136l21 121h119q23 297 158 429t366 132q94 0 179 -24.5t153 -65.5l-35 -133q-66 41 -138.5 63.5t-158.5 22.5q-84 0 -149.5 -22.5t-112.5 -73t-76 -131t-39 -197.5h387l-20 -121h-373v-29v-67.5t4 -73.5h369l-21 -125h-338 q14 -96 43 -160.5t74 -103.5t105.5 -55.5t140.5 -16.5q78 0 158.5 21.5t142.5 58.5l33 -125q-66 -41 -155 -64.5t-179 -23.5q-236 0 -357.5 111.5t-152.5 357.5h-148z" />
<glyph unicode="&#x2122;" horiz-adv-x="1280" d="M45 1358v98h453l-4 -98h-175v-551h-104v551h-170zM563 807q4 180 13.5 341t19.5 308h104q18 -39 42 -95t50.5 -116.5t51 -119t45.5 -101.5q18 43 42.5 101.5t49.5 119t48.5 116.5t39.5 95h107q10 -143 19 -306t15 -343h-106q-4 111 -7 230.5t-7 228.5q-16 -39 -39 -92.5 t-46.5 -107.5t-44 -104.5t-34.5 -82.5h-80q-20 47 -43 98t-44.5 101t-41 96.5t-33.5 80.5q-6 -100 -9 -218.5t-7 -229.5h-105z" />
<glyph unicode="&#xe000;" horiz-adv-x="993" d="M0 0v993h993v-993h-993z" />
</font>
</defs>
</svg>
