<?xml version="1.0" standalone="no"?>
<!DOCTYPE svg PUBLIC "-//W3C//DTD SVG 1.1//EN" "http://www.w3.org/Graphics/SVG/1.1/DTD/svg11.dtd" >
<svg xmlns="http://www.w3.org/2000/svg">
<metadata></metadata>
<defs>
<font id="lloyds_bank_jackbold" horiz-adv-x="1173" >
<font-face units-per-em="2048" ascent="1536" descent="-512" />
<missing-glyph horiz-adv-x="397" />
<glyph unicode="&#xfb01;" horiz-adv-x="1232" d="M35 770v223h139v82q0 186 127 282.5t367 96.5q94 0 179 -8t144 -19l-20 -241q-53 8 -122 14t-138 6q-123 0 -180.5 -38t-57.5 -119v-56h647v-993h-299v770h-348v-770h-299v770h-139z" />
<glyph unicode="&#xfb02;" horiz-adv-x="1228" d="M35 770v223h139v82q0 88 23.5 158t80 119t151.5 75.5t241 26.5q49 0 107.5 -4t118.5 -10t117.5 -15.5t102.5 -17.5v-1407h-299v1196q-33 6 -77 10t-83 4q-111 0 -147.5 -37.5t-36.5 -128.5v-51h197l-11 -223h-186v-770h-299v770h-139z" />
<glyph unicode="&#xfb03;" horiz-adv-x="1906" d="M35 770v223h139v76q0 80 18.5 150.5t62.5 123t117.5 82t182.5 29.5q35 0 87 -6t91 -16l-22 -238q-16 4 -49 8t-56 4q-74 0 -103.5 -35.5t-29.5 -121.5v-56h375v82q0 186 127 282.5t366 96.5q94 0 179.5 -8t144.5 -19l-20 -241q-53 8 -122 14t-139 6q-123 0 -180 -38 t-57 -119v-56h647v-993h-299v770h-348v-770h-299v770h-375v-770h-299v770h-139z" />
<glyph unicode="&#xfb04;" horiz-adv-x="1902" d="M35 770v223h139v76q0 80 18.5 150.5t62.5 123t117.5 82t182.5 29.5q35 0 87 -6t91 -16l-22 -238q-16 4 -49 8t-56 4q-74 0 -103.5 -35.5t-29.5 -121.5v-56h375v82q0 88 23.5 158t80 119t151.5 75.5t240 26.5q49 0 107.5 -4t119 -10t118 -15.5t102.5 -17.5v-1407h-299 v1196q-33 6 -77 10t-83 4q-111 0 -147.5 -37.5t-36.5 -128.5v-51h196l-10 -223h-186v-770h-299v770h-375v-770h-299v770h-139z" />
<glyph horiz-adv-x="0" />
<glyph horiz-adv-x="0" />
<glyph unicode="&#xd;" horiz-adv-x="397" />
<glyph unicode=" "  horiz-adv-x="397" />
<glyph unicode="&#x09;" horiz-adv-x="397" />
<glyph unicode="&#xa0;" horiz-adv-x="397" />
<glyph unicode="!" horiz-adv-x="575" d="M125 129v16q0 74 34 117t130 43t129 -43t33 -117v-16q0 -74 -33 -118t-129 -44t-130 44t-34 118zM137 864v516h301v-516l-24 -448h-252z" />
<glyph unicode="&#x22;" horiz-adv-x="978" d="M121 1014v512h307l-53 -512h-254zM573 1014v512h308l-54 -512h-254z" />
<glyph unicode="#" d="M53 264v273h156l24 196h-180v273h213l41 323h275l-39 -323h176l41 323h276l-41 -323h123v-273h-155l-25 -196h180v-273h-213l-31 -264h-276l33 264h-178l-31 -264h-277l31 264h-123zM485 537h177l24 196h-178z" />
<glyph unicode="$" d="M113 997q0 80 28.5 153t87 128t145.5 89t206 38v180h125v-186q80 -8 151.5 -25.5t118.5 -36.5l-19 -303q-53 27 -120.5 47.5t-130.5 26.5v-289l40 -16q158 -61 230 -150.5t72 -238.5q0 -111 -35 -190t-96.5 -132t-144.5 -80.5t-179 -34.5v-167h-127v167q-82 6 -167 22.5 t-157 41.5l15 307q68 -33 152.5 -55.5t156.5 -28.5v305l-47 19q-63 25 -118.5 59.5t-97.5 83.5t-65.5 114.5t-23.5 151.5zM453 1006q0 -47 34.5 -79t92.5 -59v242q-20 -2 -36 -6t-28 -8q-31 -14 -47 -38t-16 -52zM592 270q115 20 115 115q0 47 -28 77t-87 58v-250z" />
<glyph unicode="%" horiz-adv-x="1748" d="M111 1016q0 209 76 303t219 94t218.5 -94t75.5 -303q0 -213 -75.5 -309.5t-218.5 -96.5t-219 96.5t-76 309.5zM340 1016q0 -121 16.5 -167t49.5 -46q31 0 48 46t17 167t-17 163t-48 42q-33 0 -49.5 -42t-16.5 -163zM369 100l837 1346l199 -119l-840 -1356zM1049 373 q0 209 75.5 303t218.5 94t219 -94t76 -303q0 -213 -75.5 -309.5t-219.5 -96.5q-143 0 -218.5 96.5t-75.5 309.5zM1278 373q0 -121 16.5 -167t48.5 -46q31 0 48.5 46t17.5 167t-17.5 163t-48.5 42q-33 0 -49 -42t-16 -163z" />
<glyph unicode="&#x26;" horiz-adv-x="1351" d="M41 354v17q0 115 73.5 212t190.5 173q-76 98 -108.5 171.5t-32.5 145.5t26.5 134.5t76.5 108.5t122 71.5t164 25.5q76 0 142.5 -23.5t116.5 -65.5t79 -99t29 -127q0 -104 -57.5 -191.5t-200.5 -177.5q33 -35 69.5 -73t73.5 -73.5t71.5 -68.5t61.5 -57q23 59 35 135 t14 147h238q-4 -119 -34 -239.5t-81 -210.5l20 -19q53 -47 104.5 -67.5t92.5 -30.5l-84 -207q-84 10 -149.5 43t-137.5 98q-72 -66 -189.5 -102.5t-246.5 -36.5q-109 0 -196.5 29t-151 79t-97.5 121.5t-34 157.5zM328 379q0 -82 59 -134t156 -52q74 0 137 19t94 48 q-27 23 -65.5 60.5t-83.5 83t-92.5 93.5t-86.5 91q-55 -43 -86.5 -96.5t-31.5 -112.5zM430 1075q0 -33 19.5 -76t76.5 -114q63 47 95 97t32 91q0 47 -28.5 79t-81.5 32q-49 0 -81 -31t-32 -78z" />
<glyph unicode="'" horiz-adv-x="526" d="M121 1014v512h307l-53 -512h-254z" />
<glyph unicode="(" horiz-adv-x="813" d="M125 590q0 268 117.5 488t316.5 401l174 -140q-152 -160 -225.5 -351t-73.5 -400t74 -400.5t225 -351.5l-174 -137q-199 178 -316.5 400.5t-117.5 490.5z" />
<glyph unicode=")" horiz-adv-x="813" d="M80 -164q152 160 225.5 351.5t73.5 400.5t-74 400.5t-225 350.5l174 140q199 -180 316.5 -400.5t117.5 -488.5q0 -262 -117.5 -487.5t-316.5 -403.5z" />
<glyph unicode="*" horiz-adv-x="774" d="M41 1075l82 199l186 -111l-30 217h215l-33 -221l190 115l82 -197l-225 -55l166 -166l-172 -127l-115 205l-115 -203l-170 131l162 160z" />
<glyph unicode="+" d="M158 391v258h288v303h279v-303h291v-258h-291v-301h-279v301h-288z" />
<glyph unicode="," horiz-adv-x="536" d="M94 129v16q0 74 38 117t136 43t134 -47t36 -125v-10q0 -41 -12 -98.5t-36.5 -127t-60.5 -146.5t-81 -157l-154 64q37 82 66.5 149.5t52.5 139.5q-66 23 -92.5 67.5t-26.5 114.5z" />
<glyph unicode="-" horiz-adv-x="608" d="M70 369v258h469v-258h-469z" />
<glyph unicode="." horiz-adv-x="536" d="M106 129v16q0 74 33 117t129 43t130 -43t34 -117v-16q0 -74 -33.5 -118t-130.5 -44q-96 0 -129 44t-33 118z" />
<glyph unicode="/" horiz-adv-x="872" d="M27 -33l508 1454h313l-510 -1454h-311z" />
<glyph unicode="0" d="M86 692q0 371 125 546t375 175t375.5 -175t125.5 -546q0 -375 -124.5 -550t-376.5 -175t-376 175t-124 550zM426 692q0 -129 9 -216t29.5 -139t50.5 -73.5t71 -21.5t71.5 21.5t50 73.5t30 139t10.5 216q0 127 -10.5 213t-30 137.5t-50 73t-71.5 21.5t-71 -21.5t-50.5 -73 t-29.5 -137.5t-9 -213z" />
<glyph unicode="1" d="M115 1137l415 243h242v-1130h266v-250h-884v250h295v780l-256 -149z" />
<glyph unicode="2" d="M119 242q100 104 199.5 211.5t201.5 224.5q76 86 120 159.5t44 157.5q0 72 -46 109t-124 37q-55 0 -133 -21.5t-186 -81.5l-35 271q88 47 193.5 75.5t219.5 28.5q94 0 177.5 -24.5t143.5 -73.5t95 -122t35 -169q0 -90 -26.5 -168t-73.5 -149.5t-109.5 -140t-136.5 -140.5 l-178 -176h493v-250h-843z" />
<glyph unicode="3" d="M104 47l29 275q98 -41 178 -58.5t156 -17.5q104 0 162.5 47t58.5 133q0 94 -67.5 134t-171.5 40h-93v242h93q92 0 141 43t49 127q0 61 -41 95t-139 34q-68 0 -137.5 -17.5t-143.5 -48.5l-43 260q90 35 188.5 56.5t204.5 21.5q90 0 172 -19.5t143.5 -63.5t97.5 -113.5 t36 -167.5q0 -104 -47 -184.5t-144 -112.5v-7q119 -31 180.5 -116.5t61.5 -202.5t-44 -203t-117.5 -142t-171 -85t-203.5 -29q-47 0 -98.5 5t-102.5 15.5t-99.5 26t-87.5 33.5z" />
<glyph unicode="4" d="M59 315v222l473 843h412v-815h166v-250h-166v-315h-323v315h-562zM338 565h283v502z" />
<glyph unicode="5" d="M137 33l35 268q82 -29 154.5 -46t169.5 -17q53 0 100 14t70 45q39 51 39 137q0 90 -50.5 130t-160.5 40q-59 0 -121 -10t-115 -27l-78 47v766h781l-21 -250h-459v-276q72 16 158 16q186 0 294.5 -106.5t108.5 -314.5q0 -119 -35.5 -209t-103 -150.5t-162 -91.5 t-211.5 -31q-111 0 -204 15.5t-189 50.5z" />
<glyph unicode="6" d="M86 606q0 168 37 315.5t114.5 257t196.5 172t285 62.5q74 0 134 -8t103 -21l-38 -260q-18 6 -42 9.5t-48.5 6.5t-47 4t-37.5 1q-59 0 -111 -18.5t-87 -53.5q-68 -66 -90 -199q41 18 95 28.5t105 10.5q106 0 188.5 -31.5t137.5 -89t83 -138.5t28 -181q0 -104 -34 -195.5 t-96.5 -161t-153.5 -109.5t-206 -40q-154 0 -254 53.5t-158.5 142.5t-81 204.5t-22.5 238.5zM422 535q0 -61 7 -115.5t26.5 -96.5t54.5 -66t88 -24q78 0 116 56.5t38 159.5q0 104 -43 149t-121 45q-94 0 -162 -39q-2 -18 -3 -36.5t-1 -32.5z" />
<glyph unicode="7" d="M121 1130v250h926l-7 -258l-522 -1122h-336l533 1130h-594z" />
<glyph unicode="8" d="M92 389q0 55 15.5 108.5t44 100.5t67.5 82.5t88 58.5q-82 51 -127 128t-45 175q0 82 33 151t92 118t142 75.5t186 26.5q94 0 177 -24.5t142.5 -71.5t94 -114.5t34.5 -155.5q0 -92 -52 -173t-136 -133q104 -53 167.5 -139t63.5 -207q0 -100 -37.5 -180t-105.5 -135 t-158 -84t-194 -29q-96 0 -185.5 24.5t-157 77t-108.5 132.5t-41 188zM432 399q0 -72 40 -119t114 -47q80 0 116.5 47.5t36.5 118.5q0 66 -44 115t-124 84q-74 -33 -106.5 -85t-32.5 -114zM463 1036q0 -53 33 -97t92 -73q53 25 87 72t34 104t-33 92t-88 35q-61 0 -93 -35.5 t-32 -97.5z" />
<glyph unicode="9" d="M76 907q0 115 37 208t103.5 159.5t158.5 102.5t203 36q137 0 236 -44t157 -122q66 -86 91 -204.5t25 -256.5q0 -166 -35.5 -314t-112.5 -260t-197.5 -178.5t-292.5 -66.5q-72 0 -133.5 8.5t-102.5 20.5l37 260q37 -10 91 -15t85 -5q123 0 199 71q35 35 56 82t36 117 q-41 -18 -93.5 -28.5t-103.5 -10.5q-106 0 -189 32.5t-139.5 92t-86 139.5t-29.5 176zM416 930q0 -98 46 -148.5t122 -50.5q49 0 90 11.5t74 27.5q2 20 3 45t1 49q0 145 -39 214t-131 69q-72 0 -119 -56.5t-47 -160.5z" />
<glyph unicode=":" horiz-adv-x="536" d="M92 0zM92 129v16q0 74 33 117t129 43t130 -43t34 -117v-16q0 -74 -33.5 -118t-130.5 -44q-96 0 -129 44t-33 118zM92 850v16q0 74 33 117t129 43t130 -43t34 -117v-16q0 -74 -33.5 -118t-130.5 -44q-96 0 -129 44t-33 118z" />
<glyph unicode=";" horiz-adv-x="536" d="M94 0zM94 129v16q0 74 38 117t136 43t134 -47t36 -125v-10q0 -41 -12 -98.5t-36.5 -127t-60.5 -146.5t-81 -157l-154 64q37 82 66.5 149.5t52.5 139.5q-66 23 -92.5 67.5t-26.5 114.5zM106 850v16q0 74 33 117t129 43t130 -43t34 -117v-16q0 -74 -33.5 -118t-130.5 -44 q-96 0 -129 44t-33 118z" />
<glyph unicode="&#x3c;" d="M201 418v196l663 406l125 -223l-444 -275v-8l444 -270l-125 -219z" />
<glyph unicode="=" d="M158 160v258h858v-258h-858zM158 627v258h858v-258h-858z" />
<glyph unicode="&#x3e;" d="M197 244l444 270v8l-444 275l125 223l663 -406v-196l-663 -393z" />
<glyph unicode="?" horiz-adv-x="966" d="M53 1335q90 35 186.5 56.5t215.5 21.5q86 0 164.5 -20.5t140 -64.5t97.5 -113.5t36 -167.5q0 -160 -98.5 -262.5t-278.5 -133.5l-18 -239h-226l-30 413l32 2q147 8 218 60.5t71 124.5q0 61 -40 95t-134 34q-78 0 -163 -22.5t-152 -53.5zM231 129v16q0 74 33 117t129 43 t130 -43t34 -117v-16q0 -74 -34 -118t-130 -44t-129 44t-33 118z" />
<glyph unicode="@" horiz-adv-x="1667" d="M37 637v6q0 162 63.5 304.5t177 249t271.5 166.5t346 60q160 0 295 -48t233.5 -132t154.5 -197.5t56 -242.5q0 -127 -35.5 -220.5t-97 -155.5t-144.5 -93t-175 -31q-84 0 -144.5 25.5t-95.5 72.5q-84 -90 -205 -90q-127 0 -203.5 83t-76.5 229q0 94 28.5 172.5t76.5 135 t109.5 87.5t129.5 31q59 0 103 -19.5t75 -48.5l14 55h211l-57 -350q-6 -37 -10 -70.5t-4 -56.5q0 -76 73 -76q33 0 65 17.5t57.5 54.5t40.5 92t15 131q0 94 -36.5 173t-103 135.5t-160 87t-205.5 30.5q-127 0 -233.5 -44t-183.5 -119.5t-119 -178t-42 -221.5q0 -121 38 -210 t108.5 -147.5t169 -87t219.5 -28.5q78 0 162.5 12.5t162.5 38.5l-57 -225q-59 -16 -134 -23.5t-175 -7.5q-168 0 -307.5 45t-240 131t-155.5 212t-55 286zM680 631q0 -86 27.5 -121t76.5 -35q70 0 121 64q0 29 4.5 64.5t12.5 76.5l26 158q-18 18 -46 29.5t-60 11.5 q-66 0 -114 -67t-48 -181z" />
<glyph unicode="A" horiz-adv-x="1273" d="M39 0q47 180 102.5 371.5t113.5 374t114.5 346t105.5 288.5h322q41 -109 96 -268.5t113.5 -344.5t118 -383t110.5 -384h-330l-63 270q-39 -4 -92.5 -8t-104.5 -4q-57 0 -116.5 3t-100.5 9l-61 -270h-328zM498 547q29 -4 66.5 -5t76.5 -1q35 0 72 2t59 6q-55 219 -131 452 h-10q-39 -117 -73 -231.5t-60 -222.5z" />
<glyph unicode="B" horiz-adv-x="1241" d="M139 0v1380h402q92 0 172 -4t139 -20q104 -33 162.5 -106.5t58.5 -211.5q0 -94 -50 -175t-146 -109v-4q141 -27 215.5 -114t74.5 -218q0 -145 -58 -236.5t-161 -134.5q-72 -31 -161 -39t-191 -8h-457zM463 276h110q51 0 97.5 2.5t81 16.5t55 45t20.5 88q0 88 -56 117.5 t-146 29.5h-162v-299zM463 852h119q84 0 120.5 30.5t36.5 98.5q0 66 -34 96q-18 16 -48 21.5t-84 5.5h-110v-252z" />
<glyph unicode="C" horiz-adv-x="1130" d="M90 664v22q0 170 42 305t125 228.5t205 143.5t283 50q74 0 154 -12t145 -39l-24 -295q-47 18 -113.5 30.5t-126.5 12.5q-152 0 -241 -86q-59 -57 -84 -147.5t-25 -192.5q0 -94 21.5 -185t74.5 -147q41 -41 104.5 -65.5t141.5 -24.5q59 0 129 11.5t133 35.5l13 -286 q-31 -12 -70 -22.5t-81 -18t-83 -11.5t-76 -4q-170 0 -291.5 47t-200.5 136.5t-117 218.5t-38 295z" />
<glyph unicode="D" horiz-adv-x="1331" d="M139 0v1380h377q123 0 221.5 -11t171.5 -40q166 -66 250 -222.5t84 -412.5q0 -193 -54 -341t-169 -236q-88 -66 -217 -91.5t-309 -25.5h-355zM463 289h78q96 0 164.5 20.5t112.5 69.5t64.5 128t20.5 195q0 117 -19.5 195t-70.5 127q-35 35 -96.5 51.5t-157.5 16.5h-96 v-803z" />
<glyph unicode="E" horiz-adv-x="1112" d="M139 0v1380h883l-27 -288h-532v-254h475l-29 -287h-446v-262h551l-29 -289h-846z" />
<glyph unicode="F" horiz-adv-x="1079" d="M139 0v1380h883l-27 -288h-532v-254h475l-27 -287h-448v-551h-324z" />
<glyph unicode="G" horiz-adv-x="1300" d="M90 668v18q0 182 47 318.5t135 227.5t213 136t281 45q111 0 206 -16.5t183 -44.5l-20 -293q-72 25 -153 42t-167 17q-190 0 -287.5 -110.5t-97.5 -323.5q0 -94 15.5 -173t53.5 -136.5t100.5 -90t158.5 -32.5q29 0 57.5 4t46.5 10v246h-168l-18 262h506v-731 q-39 -16 -88.5 -29.5t-104.5 -23.5t-112.5 -16.5t-112.5 -6.5q-180 0 -308 47t-209 137.5t-119 220.5t-38 296z" />
<glyph unicode="H" horiz-adv-x="1361" d="M139 0v1380h324v-542h436v542h324v-1380h-324v551h-436v-551h-324z" />
<glyph unicode="I" horiz-adv-x="614" d="M145 0v1380h324v-1380h-324z" />
<glyph unicode="J" horiz-adv-x="913" d="M49 12l14 264q57 -18 94.5 -24t82.5 -6q53 0 97 18.5t69 57.5q23 35 29.5 83t6.5 119v856h326v-870q0 -49 -5 -105.5t-18.5 -110.5t-38 -104.5t-63.5 -89.5q-72 -72 -166 -102.5t-198 -30.5q-66 0 -120.5 11.5t-109.5 33.5z" />
<glyph unicode="K" horiz-adv-x="1239" d="M139 0v1380h324v-587q55 70 101 138t88 139t83 147.5t84 162.5h330q-33 -76 -76 -157.5t-92 -166.5t-105.5 -170t-113.5 -165l426 -721h-373l-344 629h-8v-629h-324z" />
<glyph unicode="L" horiz-adv-x="1060" d="M139 0v1380h324v-1091h545l-25 -289h-844z" />
<glyph unicode="M" horiz-adv-x="1609" d="M106 0q2 150 9.5 324t16.5 354t20.5 360.5t23.5 341.5h264q39 -86 87 -192.5t97.5 -217t96.5 -217t84 -192.5q37 86 84 192.5t97 217t98.5 217t89.5 192.5h260q12 -162 23 -342t20 -360t16.5 -354t9.5 -324h-305q-2 100 -5 193.5t-6 185.5t-6 186t-7 197 q-68 -170 -137.5 -331t-129.5 -302h-205q-59 141 -127.5 302t-136.5 331q-4 -102 -7 -196.5t-6 -186.5t-5.5 -185.5t-5.5 -193.5h-308z" />
<glyph unicode="N" horiz-adv-x="1404" d="M139 0v1380h269l561 -784v784h297v-1380h-256l-572 803v-803h-299z" />
<glyph unicode="O" horiz-adv-x="1331" d="M90 688v6q0 162 31 295t98.5 227.5t177 145.5t269.5 51t269 -51t178 -145.5t98.5 -227.5t29.5 -295v-6q0 -164 -29.5 -296t-98.5 -227t-178.5 -146.5t-268.5 -51.5q-160 0 -269.5 51.5t-177 146.5t-98.5 227t-31 296zM430 690q0 -215 52.5 -322.5t183.5 -107.5t183 107.5 t52 322.5q0 213 -52 321.5t-183 108.5t-183.5 -108.5t-52.5 -321.5z" />
<glyph unicode="P" horiz-adv-x="1157" d="M139 0v1380h359q92 0 178 -8t155 -31q117 -41 185.5 -150.5t68.5 -268.5q0 -236 -140 -352.5t-392 -116.5h-90v-453h-324zM463 741h63q51 0 92 5.5t70 23.5t43 54t14 98q0 47 -15 83.5t-44 55.5q-29 18 -65.5 24.5t-90.5 6.5h-67v-351z" />
<glyph unicode="Q" horiz-adv-x="1331" d="M90 688v6q0 162 31 295t98.5 227.5t177 145.5t269.5 51t269 -51t178 -145.5t98.5 -227.5t29.5 -295v-6q0 -205 -47 -359.5t-158 -246.5l205 -215l-256 -178q-16 18 -41.5 51t-56.5 71.5t-63.5 80.5t-61.5 81q-23 -4 -49.5 -5t-46.5 -1q-160 0 -269.5 51.5t-177 146.5 t-98.5 227t-31 296zM430 690q0 -215 52.5 -322.5t183.5 -107.5t183 107.5t52 322.5q0 213 -52 321.5t-183 108.5t-183.5 -108.5t-52.5 -321.5z" />
<glyph unicode="R" horiz-adv-x="1181" d="M139 0v1380h359q92 0 178 -8t155 -31q117 -41 185.5 -150.5t68.5 -268.5q0 -143 -53 -242.5t-153 -155.5l249 -524h-335l-199 455q-16 -2 -37.5 -2h-44.5h-49v-453h-324zM463 735h63q51 0 92 6.5t70 25.5t43 56t14 99q0 47 -15 86t-44 57t-64.5 24.5t-91.5 6.5h-67v-361z " />
<glyph unicode="S" horiz-adv-x="1093" d="M90 999q0 86 31 161t94.5 131.5t156.5 89t220 32.5q102 0 197.5 -22.5t154.5 -47.5l-18 -307q-74 39 -157 60.5t-161 21.5q-37 0 -67.5 -5t-51.5 -15q-33 -14 -46 -38t-13 -52q0 -55 49 -91t125 -67l115 -45q154 -61 227.5 -151.5t73.5 -241.5q0 -121 -41 -205 t-110.5 -137.5t-164 -78t-198.5 -24.5q-92 0 -194.5 18.5t-188.5 47.5l14 311q76 -37 172.5 -60.5t165.5 -23.5q111 0 158 28.5t47 92.5q0 59 -41 93t-129 69l-115 45q-61 25 -117.5 59.5t-97.5 84.5t-65.5 115.5t-24.5 151.5z" />
<glyph unicode="T" horiz-adv-x="1101" d="M47 1092v288h1012l-27 -288h-323v-1092h-324v1092h-338z" />
<glyph unicode="U" horiz-adv-x="1323" d="M133 526v856h324v-839q0 -72 8 -124t31.5 -88t63.5 -53.5t102 -17.5q63 0 103 17.5t62.5 53.5t30.5 88t8 124v839h324v-856q0 -137 -26.5 -241.5t-88 -175t-163 -106.5t-250.5 -36q-152 0 -253.5 36t-163 106.5t-87 175t-25.5 241.5z" />
<glyph unicode="V" horiz-adv-x="1267" d="M35 1380h346q25 -109 56.5 -236.5t65.5 -256.5t66.5 -250t61.5 -213h6q29 92 61.5 213t66.5 250t65.5 257t56.5 236h346q-43 -160 -96.5 -344t-109.5 -368.5t-112.5 -357.5t-103.5 -310h-354q-47 137 -103.5 310t-113 357.5t-109.5 369t-96 343.5z" />
<glyph unicode="W" horiz-adv-x="1851" d="M35 1380h342q20 -98 46 -227t53.5 -262t53 -258t45.5 -219h5q14 72 25 131t23.5 123.5t26 141.5t31.5 183q14 88 28.5 183.5t24.5 203.5h379q14 -109 30.5 -204t33.5 -183q18 -104 32.5 -182t26.5 -142.5t23.5 -124t25.5 -130.5h4q20 94 45 219t50.5 258t50 262t43.5 227 h334q-39 -176 -83 -364.5t-88 -369.5t-87 -347t-80 -299h-375q-18 90 -41 210t-45.5 250t-45 262t-36.5 247h-4q-18 -115 -42 -247t-48.5 -262t-48 -250t-41.5 -210h-373q-39 143 -82 311t-87 347.5t-89 362.5t-86 359z" />
<glyph unicode="X" horiz-adv-x="1298" d="M35 0q49 104 98 195.5t98.5 176.5t101.5 164.5t109 159.5q-55 78 -110.5 167t-105.5 179.5t-93 177.5t-76 160h363q39 -104 96 -214.5t125 -204.5h6q68 94 126 204.5t97 214.5h365q-33 -74 -76 -160.5t-93 -178t-105.5 -180.5t-112.5 -167q127 -178 228.5 -350 t187.5 -344h-387q-49 115 -110.5 228.5t-115.5 191.5h-6q-35 -53 -63.5 -102.5t-56 -99.5t-54.5 -103.5t-55 -114.5h-381z" />
<glyph unicode="Y" horiz-adv-x="1179" d="M35 1380h327q57 -184 109.5 -324.5t114.5 -269.5h8q61 129 112.5 269.5t110.5 324.5h328q-72 -229 -174.5 -466.5t-218.5 -452.5v-461h-324v461q-117 215 -219.5 452.5t-173.5 466.5z" />
<glyph unicode="Z" horiz-adv-x="1144" d="M78 236l555 856h-533v288h953v-229l-553 -862h563l-27 -289h-919z" />
<glyph unicode="[" horiz-adv-x="735" d="M129 -178v1591h477v-229h-194v-1135h194v-227h-477z" />
<glyph unicode="\" horiz-adv-x="872" d="M25 1421h313l508 -1454h-311z" />
<glyph unicode="]" horiz-adv-x="735" d="M129 49h195v1135h-195v229h477v-1591h-477v227z" />
<glyph unicode="^" d="M78 678l379 682h258l381 -682l-228 -129l-280 493h-4l-279 -493z" />
<glyph unicode="_" horiz-adv-x="1013" d="M10 -117h994v-186h-994v186z" />
<glyph unicode="`" horiz-adv-x="815" d="M104 1339l136 217l471 -270l-93 -172z" />
<glyph unicode="a" horiz-adv-x="1050" d="M57 272q0 186 141.5 281.5t403.5 95.5h33v35q0 59 -30 81.5t-109 22.5q-37 0 -81 -6t-89 -17t-88 -26.5t-78 -33.5l-39 233q41 18 92 34.5t105.5 28t109.5 18.5t104 7q143 0 244 -46t137 -161q10 -33 15.5 -78t5.5 -86v-460q0 -29 13.5 -38.5t47.5 -9.5v-159 q-25 -8 -68.5 -14.5t-88.5 -6.5q-68 0 -117 26.5t-66 92.5h-4q-43 -55 -114.5 -87t-165.5 -32q-63 0 -119.5 18.5t-99.5 56.5t-69 95.5t-26 134.5zM369 307q0 -49 27.5 -77.5t84.5 -28.5q41 0 82 17.5t72 45.5v185h-21q-49 0 -96 -7.5t-82 -25.5q-29 -16 -48 -44t-19 -65z " />
<glyph unicode="b" horiz-adv-x="1138" d="M109 0v1413h301v-489q47 45 115.5 73.5t154.5 28.5q106 0 180 -42t120 -112.5t66.5 -165t20.5 -198.5v-12q0 -119 -28.5 -216.5t-83 -167t-129 -107.5t-167.5 -38q-92 0 -163.5 36t-120.5 97h-4l-11 -100h-251zM410 322q29 -39 79 -64t84 -25q59 0 95.5 25t55.5 62.5 t25.5 84t6.5 91.5q0 145 -54 213q-18 23 -45.5 37t-66.5 14q-53 0 -99.5 -22.5t-80.5 -55.5v-360z" />
<glyph unicode="c" horiz-adv-x="940" d="M72 483v13q0 150 43 251t114.5 163.5t164.5 89t194 26.5q78 0 152.5 -14.5t127.5 -38.5l-16 -258q-47 25 -107.5 39t-113.5 14q-248 0 -248 -268q0 -150 63.5 -214.5t186.5 -64.5q47 0 104.5 9.5t124.5 31.5l10 -248q-63 -27 -142 -37t-148 -10q-152 0 -251.5 40 t-160.5 126q-47 66 -72.5 154t-25.5 196z" />
<glyph unicode="d" horiz-adv-x="1132" d="M72 481v17q0 109 26.5 205t80.5 167.5t137 113.5t194 42q66 0 123 -21.5t90 -56.5v465h301v-1413h-254l-16 88h-4q-41 -55 -117 -88t-154 -33q-92 0 -166.5 36t-129 102.5t-83 161.5t-28.5 214zM383 496q0 -41 7 -87.5t25.5 -85t52.5 -64.5t87 -26t97 24t71 54v375 q-23 33 -61.5 53.5t-88.5 20.5q-53 0 -90 -21.5t-59.5 -57.5t-31.5 -84t-9 -101z" />
<glyph unicode="e" horiz-adv-x="1056" d="M72 496v6q0 256 122.5 390t358.5 134q113 0 193.5 -34t133 -97.5t78 -154.5t25.5 -203q0 -41 -1 -83t-5 -81h-596q10 -68 63.5 -113t165.5 -45q86 0 168 11.5t150 33.5l10 -235q-78 -31 -163 -44.5t-173 -13.5q-127 0 -225 28t-166 91.5t-103.5 163.5t-35.5 246zM379 584 h305v22q0 37 -6 72t-21.5 60.5t-44 42t-73.5 16.5q-88 0 -124 -55.5t-36 -143.5v-14z" />
<glyph unicode="f" horiz-adv-x="704" d="M35 770v223h139v76q0 80 18.5 150.5t62.5 123t117.5 82t182.5 29.5q35 0 87 -6t91 -16l-22 -238q-16 4 -49 8t-56 4q-74 0 -103.5 -35.5t-29.5 -121.5v-56h197l-11 -223h-186v-770h-299v770h-139z" />
<glyph unicode="g" horiz-adv-x="1105" d="M37 -178q0 66 44 123t116 90q-43 23 -72 59.5t-29 89.5q0 49 34 93.5t99 72.5q-35 16 -66.5 46t-55 70t-38 87t-14.5 100v13q0 88 34 154.5t94.5 112.5t143.5 69.5t181 23.5q66 0 120 -10t101 -29q29 29 68 54.5t81 44t85 29.5t79 11h25l-29 -217h-39q-29 0 -64.5 -3 t-66.5 -9q47 -41 73 -105.5t26 -123.5v-13q0 -98 -37 -165.5t-99.5 -109.5t-145.5 -61.5t-177 -19.5q-35 0 -67.5 2t-63.5 8q-14 -16 -20.5 -32.5t-6.5 -32.5q0 -29 21.5 -45.5t66.5 -16.5h211q70 0 134.5 -15t114.5 -49t80 -87.5t30 -128.5q0 -82 -38 -147.5t-105.5 -111.5 t-160 -71t-200.5 -25q-236 0 -351.5 73t-115.5 202zM315 -123q0 -53 43 -88t156 -35q98 0 151.5 34t53.5 89t-36 74.5t-108 19.5h-110q-35 0 -60.5 2t-54.5 7q-35 -47 -35 -103zM373 659q0 -92 34.5 -125.5t100.5 -33.5q68 0 103.5 33.5t35.5 125.5t-35.5 129t-103.5 37 q-66 0 -100.5 -36.5t-34.5 -129.5z" />
<glyph unicode="h" horiz-adv-x="1134" d="M109 0v1413h301v-493q51 47 124.5 76.5t165.5 29.5q74 0 138.5 -23.5t103.5 -64.5q47 -49 68.5 -124t21.5 -175v-639h-301v592q0 47 -6 74.5t-20 46.5q-33 43 -103 43q-59 0 -109.5 -21.5t-82.5 -50.5v-684h-301z" />
<glyph unicode="i" horiz-adv-x="526" d="M98 1260v16q0 74 35 119t131 45t131 -45t35 -119v-16q0 -76 -35 -121t-131 -45t-131 45t-35 121zM113 0v993h301v-993h-301z" />
<glyph unicode="j" horiz-adv-x="526" d="M-102 -424l26 231q37 -6 78 -6q59 0 85 40t26 128v1024h301v-942q0 -98 -12.5 -187t-51.5 -156.5t-111.5 -107.5t-193.5 -40q-33 0 -76 5t-71 11zM98 1260v16q0 74 35 119t131 45t131 -45t35 -119v-16q0 -76 -35 -121t-131 -45t-131 45t-35 121z" />
<glyph unicode="k" horiz-adv-x="1026" d="M109 0v1413h301v-778q176 158 256 358h307q-51 -129 -120 -238.5t-163 -205.5l318 -549h-332l-211 362q-14 -10 -27.5 -17t-27.5 -15v-330h-301z" />
<glyph unicode="l" horiz-adv-x="526" d="M113 0v1413h301v-1413h-301z" />
<glyph unicode="m" horiz-adv-x="1701" d="M109 0v993h272l10 -90h4q49 53 125 88t162 35q74 0 133 -22.5t94 -59.5q23 -23 39 -49q63 59 143 95t185 36q74 0 134 -23.5t99 -64.5q47 -49 67.5 -116.5t20.5 -168.5v-653h-299v588q0 88 -28 123q-31 41 -96 41q-45 0 -91.5 -23.5t-78.5 -66.5v-662h-299v588 q0 88 -29 123q-31 41 -96 41q-45 0 -91.5 -23.5t-78.5 -66.5v-662h-301z" />
<glyph unicode="n" horiz-adv-x="1134" d="M109 0v993h268l10 -96h4q53 57 129 93t180 36q74 0 138.5 -23.5t103.5 -64.5q47 -49 68.5 -124t21.5 -175v-639h-301v592q0 47 -6 74.5t-20 46.5q-33 43 -103 43q-59 0 -108.5 -24.5t-83.5 -63.5v-668h-301z" />
<glyph unicode="o" horiz-adv-x="1140" d="M72 489v15q0 250 125 386t374 136q250 0 374 -136t124 -386v-15q0 -250 -124 -386t-374 -136t-374.5 136.5t-124.5 385.5zM383 496q0 -152 47 -217.5t141 -65.5q92 0 139.5 65.5t47.5 217.5q0 154 -47.5 219t-139.5 65q-94 0 -141 -65.5t-47 -218.5z" />
<glyph unicode="p" horiz-adv-x="1142" d="M109 -408v1401h266l12 -100h4q41 53 116 93t165 40q193 0 296 -136t103 -370v-12q0 -104 -24.5 -201.5t-76.5 -173.5t-134 -121t-195 -45q-35 0 -69.5 9.5t-65.5 22.5t-56.5 29.5t-39.5 32.5v-469h-301zM410 303q25 -23 67.5 -44t93.5 -21q55 0 91 21.5t57.5 57t31 84 t9.5 101.5q0 41 -6 86t-24.5 82t-51.5 61.5t-86 24.5t-103.5 -28t-78.5 -69v-356z" />
<glyph unicode="q" horiz-adv-x="1136" d="M72 489v11q0 117 28.5 214t82 166.5t128 107.5t166.5 38q86 0 155.5 -32.5t119.5 -88.5h4l8 88h264v-1401h-301v469q-33 -35 -98.5 -64.5t-139.5 -29.5q-115 0 -194.5 42t-128.5 114t-71.5 167t-22.5 199zM383 485q0 -47 7 -92t25.5 -81t50.5 -58.5t83 -22.5 q55 0 100 21.5t78 56.5v355q-23 37 -70 64.5t-94 27.5q-59 0 -95 -25.5t-54.5 -65.5t-24.5 -87.5t-6 -92.5z" />
<glyph unicode="r" horiz-adv-x="745" d="M109 0v993h266l18 -137h4q43 66 120 112t188 46l-9 -277q-104 0 -170.5 -25.5t-115.5 -74.5v-637h-301z" />
<glyph unicode="s" horiz-adv-x="874" d="M53 713q0 141 106.5 227t297.5 86q78 0 158.5 -15.5t146.5 -39.5l-29 -248q-47 29 -114.5 45t-131.5 16q-68 0 -98.5 -17t-30.5 -50q0 -45 115 -80l88 -25q78 -23 130 -51.5t83 -66t44 -87t13 -110.5q0 -162 -113.5 -246t-318.5 -84q-84 0 -173 15.5t-154 40.5l26 247 q59 -29 139 -46t138 -17q80 0 116.5 17.5t36.5 51.5q0 16 -5 28.5t-20.5 24t-43 21.5t-70.5 23l-82 24q-117 35 -185.5 112t-68.5 204z" />
<glyph unicode="t" horiz-adv-x="755" d="M31 770v223h139v254l299 43v-297h217l-10 -223h-207v-395q0 -59 10 -93t26.5 -50.5t39 -19.5t45.5 -3t48.5 5t47.5 11l10 -233q-16 -6 -37.5 -10.5t-46 -7.5t-48 -5t-42.5 -2q-104 0 -172.5 24.5t-108.5 72t-55.5 116t-15.5 158.5v432h-139z" />
<glyph unicode="u" horiz-adv-x="1085" d="M98 494v499h299v-536q0 -55 2 -96.5t9 -63.5q23 -84 135 -84q113 0 135 84q6 23 8 63.5t2 96.5v536h299v-499q0 -78 -1 -132.5t-5 -76.5q-20 -174 -128 -246t-310 -72q-203 0 -310.5 72t-128.5 246q-4 23 -5 77t-1 132z" />
<glyph unicode="v" horiz-adv-x="989" d="M12 993h318q8 -76 28.5 -164t45 -176t49 -170t45.5 -145h4q18 63 40.5 145t45 170t42 176.5t29.5 163.5h316q-16 -66 -41 -148.5t-53.5 -174.5t-60.5 -187.5t-62.5 -184.5t-59 -166t-51.5 -132h-307q-23 55 -52.5 132t-60 166t-63.5 183t-61.5 186.5t-52 176.5t-38.5 149 z" />
<glyph unicode="w" horiz-adv-x="1540" d="M29 993h315q12 -66 29.5 -149.5t37 -172.5t40 -173t36.5 -150h5q14 61 33.5 142t40 168t40 174.5t33.5 160.5h262q14 -74 32.5 -161t39 -174t40 -167.5t36.5 -142.5h4q16 66 37.5 153t41 176t37 173t27.5 143h315q-23 -90 -61.5 -224t-81.5 -277.5t-86 -275.5t-74 -216 h-288q-35 115 -75 268.5t-73 306.5h-4q-35 -154 -73 -307t-72 -268h-291q-31 84 -74 216t-86 275.5t-82 277.5t-61 224z" />
<glyph unicode="x" horiz-adv-x="1046" d="M33 0q76 141 157.5 269t157.5 223q-47 57 -91 121.5t-85 130t-76 129t-61 120.5h323q23 -68 64 -143.5t84 -134.5h8q41 59 79 134t66 144h314q-53 -117 -132 -250t-163 -247q84 -98 169 -226.5t169 -269.5h-338q-37 72 -77 139.5t-83 130.5h-8q-41 -63 -75 -130.5 t-66 -139.5h-336z" />
<glyph unicode="y" horiz-adv-x="1036" d="M29 993h321q37 -207 85 -386t93 -304h4q49 141 88 314.5t76 375.5h312q-53 -252 -133 -506t-191 -505q-53 -119 -103.5 -198t-104.5 -127t-116.5 -68.5t-136.5 -20.5q-51 0 -98 7t-78 15l10 230q25 -6 57.5 -11.5t57.5 -5.5q72 0 128 45.5t91 137.5 q-106 193 -198.5 449.5t-163.5 557.5z" />
<glyph unicode="z" horiz-adv-x="880" d="M41 162q94 156 192.5 300t202.5 308h-377v223h746v-159q-98 -154 -211 -301.5t-211 -309.5h432l-24 -223h-715z" />
<glyph unicode="{" horiz-adv-x="796" d="M98 479v195q135 8 138 131l6 295q2 141 84 227t237 86h148v-229h-101q-51 0 -69.5 -24.5t-20.5 -72.5l-4 -237q-2 -102 -40 -171t-132 -101v-5q94 -31 132 -105.5t40 -166.5l4 -233q2 -47 20.5 -73t69.5 -26h101v-227h-148q-156 0 -237.5 86t-83.5 225l-6 295 q-2 123 -138 131z" />
<glyph unicode="|" horiz-adv-x="540" d="M129 -33v1454h283v-1454h-283z" />
<glyph unicode="}" horiz-adv-x="796" d="M86 -35h100q51 0 69.5 24.5t20.5 71.5l5 240q2 102 39.5 172t132.5 100v5q-94 33 -132 106.5t-40 165.5l-5 242q-2 47 -20 72.5t-70 25.5h-100v223h150q154 0 235.5 -86t85.5 -227l6 -295q2 -123 137 -131v-195q-135 -8 -137 -131l-6 -295q-4 -139 -86 -225t-235 -86 h-150v223z" />
<glyph unicode="~" d="M43 567q59 137 150.5 208t205.5 71q55 0 103.5 -19.5t91.5 -48.5l61 -41q31 -20 55.5 -31.5t51.5 -11.5q53 0 95 41t77 111l192 -154q-29 -61 -68.5 -112.5t-85.5 -87t-95.5 -55t-94.5 -19.5q-59 0 -98 12t-74 35l-59 39q-35 23 -65.5 40t-65.5 17q-47 0 -90 -33.5 t-86 -111.5z" />
<glyph unicode="&#xa1;" horiz-adv-x="575" d="M125 848v16q0 74 34 118t130 44t129 -44t33 -118v-16q0 -74 -33 -117t-129 -43t-130 43t-34 117zM137 129l25 449h252l24 -449v-516h-301v516z" />
<glyph unicode="&#xa2;" d="M160 668v12q0 139 38 237.5t102.5 161t149.5 93t177 36.5v205h127v-207q57 -4 109 -17t93 -32l-16 -258q-41 20 -90 33.5t-96 17.5v-544q41 4 90 12t106 28l11 -247q-45 -18 -99.5 -29.5t-107.5 -15.5v-187h-127v185q-133 6 -222.5 47t-146.5 118q-47 66 -72.5 154 t-25.5 197zM471 684q0 -117 39 -181.5t117 -86.5v524q-156 -47 -156 -256z" />
<glyph unicode="&#xa3;" d="M117 571v248h143v113q0 231 109.5 356t339.5 125q86 0 162.5 -14.5t150.5 -40.5l-39 -281q-45 18 -101.5 29.5t-109.5 11.5q-188 0 -188 -211v-88h284l-28 -248h-256v-82q0 -78 -18.5 -135t-71.5 -92v-4h510l-31 -258h-838l-10 246q78 23 106.5 75t28.5 136v114h-143z " />
<glyph unicode="&#xa4;" horiz-adv-x="1142" d="M49 209l170 172q-27 45 -41 96t-14 109q0 104 51 196l-166 170l156 146l160 -164q45 27 96 42t108 15t109.5 -15t99.5 -42l160 164l156 -146l-168 -172q49 -90 49 -196q0 -115 -51 -203l170 -172l-156 -148l-166 170q-45 -27 -97 -41t-106 -14q-55 0 -105 14.5t-95 40.5 l-164 -170zM391 586q0 -84 53.5 -133.5t128.5 -49.5q72 0 125.5 50.5t53.5 130.5q0 82 -53.5 131t-129.5 49q-72 0 -125 -48t-53 -130z" />
<glyph unicode="&#xa5;" d="M41 1380h328q53 -184 106 -338.5t107 -275.5h8q53 121 106.5 275.5t106.5 338.5h327q-55 -174 -124.5 -355t-151.5 -355h154l-21 -209h-239v-90h239v-205h-239v-166h-324v166h-240v205h240v90h-240l-20 209h153q-84 174 -152.5 355t-123.5 355z" />
<glyph unicode="&#xa6;" horiz-adv-x="540" d="M129 -33v604h283v-604h-283zM129 809v612h283v-612h-283z" />
<glyph unicode="&#xa7;" horiz-adv-x="937" d="M80 694q0 66 30.5 123t98.5 101q-51 37 -80 92t-29 131q0 59 27 110.5t76 89t120.5 59t161.5 21.5q66 0 138.5 -13t134.5 -38l-10 -221q-57 25 -120 39t-116 14q-72 0 -104.5 -19.5t-32.5 -49.5q0 -33 30.5 -54.5t118.5 -54.5l121 -47q109 -41 161 -108.5t52 -155.5 q0 -74 -36 -134.5t-93 -101.5q41 -31 68.5 -81t27.5 -115q0 -154 -104.5 -234t-298.5 -80q-35 0 -77 4t-85 12.5t-84 19.5t-74 26l9 227q74 -29 155.5 -47.5t141.5 -18.5q162 0 161 76q0 29 -27.5 50.5t-113.5 56.5l-131 51q-217 84 -217 270zM322 745q0 -43 25.5 -74.5 t86.5 -54.5l133 -51q23 16 35 44t12 57q0 41 -21.5 70.5t-90.5 56.5l-127 49q-23 -16 -38 -42t-15 -55z" />
<glyph unicode="&#xa8;" horiz-adv-x="815" d="M59 1317v16q0 72 33 110t117 38q82 0 112.5 -38t30.5 -110v-16q0 -72 -30.5 -110t-112.5 -38q-84 0 -117 38t-33 110zM465 1317v16q0 72 31.5 110t113.5 38q84 0 116 -38t32 -110v-16q0 -72 -32 -110t-116 -38q-82 0 -113.5 38t-31.5 110z" />
<glyph unicode="&#xa9;" horiz-adv-x="1705" d="M90 692q0 166 57.5 305.5t159 240.5t240.5 158.5t305 57.5t305 -57.5t240.5 -158.5t159 -240.5t57.5 -305.5t-57.5 -305t-159 -241.5t-240.5 -160t-305 -57.5t-305 57.5t-240.5 160t-159 241.5t-57.5 305zM350 692q0 -106 36 -201.5t101.5 -167t157.5 -113.5t207 -42 q113 0 206 42t158.5 113.5t101.5 167t36 201.5q0 111 -36 206t-101.5 166t-158.5 110.5t-206 39.5q-115 0 -207 -39.5t-157.5 -110.5t-101.5 -166t-36 -206zM530 674q0 180 88.5 283.5t268.5 103.5q41 0 82 -6t75 -21l-12 -186q-25 10 -59.5 17t-67.5 7q-72 0 -109.5 -40.5 t-37.5 -147.5q0 -100 36.5 -143t110.5 -43q31 0 68 6t69 20l7 -186q-31 -10 -78 -18.5t-84 -8.5q-182 0 -269.5 94.5t-87.5 268.5z" />
<glyph unicode="&#xaa;" horiz-adv-x="714" d="M29 825q0 125 97 186.5t273 61.5h9v12q0 29 -16.5 43.5t-63.5 14.5t-107.5 -15.5t-111.5 -40.5l-27 177q53 23 131 40t143 17q98 0 165 -30.5t95 -112.5q6 -20 9.5 -49t3.5 -58v-278q0 -35 43 -35v-131q-23 -8 -49.5 -12.5t-69.5 -4.5q-47 0 -79 15.5t-44 52.5h-6 q-57 -68 -172 -68q-43 0 -84 12.5t-71.5 39t-49 67.5t-18.5 96zM256 838q0 -31 20.5 -46.5t49.5 -15.5q25 0 45 11.5t37 27.5v115q-72 0 -109 -19q-43 -20 -43 -73z" />
<glyph unicode="&#xab;" horiz-adv-x="1259" d="M59 498l363 514l217 -133l-268 -381l268 -379l-217 -135zM612 498l361 514l217 -133l-268 -381l268 -379l-217 -135z" />
<glyph unicode="&#xac;" d="M158 391v258h858v-514h-264v256h-594z" />
<glyph unicode="&#xad;" horiz-adv-x="608" d="M70 369v258h469v-258h-469z" />
<glyph unicode="&#xae;" horiz-adv-x="1705" d="M90 692q0 166 57.5 305.5t159 240.5t240.5 158.5t305 57.5t305 -57.5t240.5 -158.5t159 -240.5t57.5 -305.5t-57.5 -305t-159 -241.5t-240.5 -160t-305 -57.5t-305 57.5t-240.5 160t-159 241.5t-57.5 305zM350 692q0 -106 36 -201.5t101.5 -167t157.5 -113.5t207 -42 q113 0 206 42t158.5 113.5t101.5 167t36 201.5q0 111 -36 206t-101.5 166t-158.5 110.5t-206 39.5q-115 0 -207 -39.5t-157.5 -110.5t-101.5 -166t-36 -206zM604 324v731h184q59 0 101.5 -4t73 -12.5t53 -18.5t41.5 -25q39 -29 60.5 -75t21.5 -99q0 -86 -34 -143t-91 -84 l141 -270h-199l-112 241q-10 -2 -31 -2h-16v-239h-193zM797 731h47q47 0 69.5 12.5t22.5 65.5q0 45 -20.5 61.5t-71.5 16.5h-47v-156z" />
<glyph unicode="&#xaf;" horiz-adv-x="815" d="M78 1217v184h659v-184h-659z" />
<glyph unicode="&#xb0;" horiz-adv-x="735" d="M49 1171q0 63 22.5 122t64.5 102t101.5 68.5t131.5 25.5t130 -25.5t100 -68.5t64.5 -101.5t22.5 -122.5q0 -63 -22.5 -120.5t-64.5 -100.5t-100.5 -68.5t-129.5 -25.5q-72 0 -131.5 25.5t-101.5 68.5t-64.5 100.5t-22.5 120.5zM264 1171q0 -51 27.5 -82.5t77.5 -31.5 q49 0 75.5 31.5t26.5 82.5t-26.5 85t-75.5 34t-77 -33.5t-28 -85.5z" />
<glyph unicode="&#xb1;" d="M158 0v250h858v-250h-858zM158 651v258h288v283h279v-283h291v-258h-291v-282h-279v282h-288z" />
<glyph unicode="&#xb2;" horiz-adv-x="716" d="M86 983l205 211q55 57 79.5 94t24.5 70q0 55 -82 55q-47 0 -99 -15.5t-103 -43.5l-17 190q55 29 124 47.5t130 18.5q125 0 201 -57.5t76 -174.5q0 -82 -45 -149.5t-136 -149.5l-71 -65h258v-187h-531z" />
<glyph unicode="&#xb3;" horiz-adv-x="716" d="M82 846l14 182q94 -33 187 -33q125 0 125 70q0 37 -26 52.5t-85 15.5h-84v159h70q29 0 54 4t42 15q14 10 19 23.5t5 29.5q0 59 -100 59q-82 0 -164 -32l-16 176q43 16 103.5 29.5t119.5 13.5q129 0 207 -51.5t78 -159.5q0 -53 -26.5 -97.5t-82.5 -72.5q53 -23 84 -66 t31 -112q0 -117 -88 -180.5t-234 -63.5q-59 0 -120.5 10t-112.5 29z" />
<glyph unicode="&#xb4;" horiz-adv-x="815" d="M104 1286l471 270l136 -217l-514 -225z" />
<glyph unicode="&#xb6;" horiz-adv-x="1126" d="M27 1047q0 82 29.5 150.5t83 118.5t125 77.5t155.5 27.5h567v-1614h-233v1424h-156v-1424h-233l-3 865q-150 29 -242.5 125t-92.5 250z" />
<glyph unicode="&#xb7;" horiz-adv-x="536" d="M106 532v17q0 74 33 117t129 43t130 -43t34 -117v-17q0 -76 -33.5 -118.5t-130.5 -42.5q-96 0 -129 43t-33 118z" />
<glyph unicode="&#xb8;" horiz-adv-x="815" d="M156 -504l41 137q41 -16 87 -26t81 -10q55 0 80.5 19t25.5 50q0 70 -104 70q-35 0 -65 -4t-58 -11l-21 23l58 246l161 -19l-18 -98q111 2 172 -46t61 -146q0 -117 -73.5 -178.5t-202.5 -61.5q-55 0 -113.5 14.5t-111.5 40.5z" />
<glyph unicode="&#xb9;" horiz-adv-x="716" d="M72 1448l262 141h172v-581h133v-181h-522v181h168v335l-152 -79z" />
<glyph unicode="&#xba;" horiz-adv-x="772" d="M49 961v10q0 168 84 259t252 91q170 0 253 -91t83 -259v-10q0 -166 -83 -258.5t-253 -92.5q-168 0 -252 92.5t-84 258.5zM279 965q0 -92 24.5 -131t81.5 -39t83 38.5t26 131.5q0 92 -26 132t-83 40t-81.5 -40t-24.5 -132z" />
<glyph unicode="&#xbb;" horiz-adv-x="1259" d="M70 119l268 379l-268 381l217 133l360 -514l-360 -514zM623 119l268 379l-268 381l215 133l362 -514l-362 -514z" />
<glyph unicode="&#xbc;" horiz-adv-x="1748" d="M74 1251l262 142h172v-582h133v-180h-522v180h168v336l-152 -80zM397 100l838 1346l199 -119l-840 -1356zM1018 147v146l293 457h266v-428h92v-175h-92v-159h-219v159h-340zM1210 322h148v227z" />
<glyph unicode="&#xbd;" horiz-adv-x="1748" d="M74 1251l262 142h172v-582h133v-180h-522v180h168v336l-152 -80zM397 100l838 1346l199 -119l-840 -1356zM1130 143l205 211q55 57 80 94t25 70q0 55 -82 55q-47 0 -99.5 -15t-103.5 -44l-16 191q55 29 123.5 47t130.5 18q125 0 200.5 -57.5t75.5 -173.5 q0 -82 -45 -149.5t-135 -149.5l-72 -66h258v-186h-530z" />
<glyph unicode="&#xbe;" horiz-adv-x="1748" d="M125 649l14 182q94 -33 187 -32q125 0 125 69q0 37 -26 52.5t-85 15.5h-84v160h70q29 0 54.5 4t41.5 14q14 10 19 23.5t5 29.5q0 59 -100 60q-82 0 -164 -33l-16 176q43 16 103.5 29.5t119.5 13.5q129 0 207 -51t78 -160q0 -53 -26.5 -97t-82.5 -73q53 -23 84 -65.5 t31 -112.5q0 -117 -88 -180.5t-234 -63.5q-59 0 -120.5 10.5t-112.5 28.5zM397 100l838 1346l199 -119l-840 -1356zM1018 147v146l293 457h266v-428h92v-175h-92v-159h-219v159h-340zM1210 322h148v227z" />
<glyph unicode="&#xbf;" horiz-adv-x="966" d="M74 -53q0 160 98 262t277 133l20 240h225l29 -414l-31 -2q-147 -8 -218 -60.5t-71 -123.5q0 -61 39 -95t133 -34q78 0 164 22.5t154 52.5l18 -270q-88 -35 -184 -56.5t-217 -21.5q-86 0 -165 20.5t-139.5 64.5t-96 113.5t-35.5 168.5zM410 848v16q0 74 33.5 118t129.5 44 t129 -44t33 -118v-16q0 -74 -32.5 -117t-129.5 -43q-96 0 -129.5 43t-33.5 117z" />
<glyph unicode="&#xc0;" horiz-adv-x="1273" d="M39 0q47 180 102.5 371.5t113.5 374t114.5 346t105.5 288.5h322q41 -109 96 -268.5t113.5 -344.5t118 -383t110.5 -384h-330l-63 270q-39 -4 -92.5 -8t-104.5 -4q-57 0 -116.5 3t-100.5 9l-61 -270h-328zM307 1706l135 219l471 -272l-92 -170zM498 547q29 -4 66.5 -5 t76.5 -1q35 0 72 2t59 6q-55 219 -131 452h-10q-39 -117 -73 -231.5t-60 -222.5z" />
<glyph unicode="&#xc1;" horiz-adv-x="1273" d="M39 0q47 180 102.5 371.5t113.5 374t114.5 346t105.5 288.5h322q41 -109 96 -268.5t113.5 -344.5t118 -383t110.5 -384h-330l-63 270q-39 -4 -92.5 -8t-104.5 -4q-57 0 -116.5 3t-100.5 9l-61 -270h-328zM369 1653l471 272l135 -219l-514 -223zM498 547q29 -4 66.5 -5 t76.5 -1q35 0 72 2t59 6q-55 219 -131 452h-10q-39 -117 -73 -231.5t-60 -222.5z" />
<glyph unicode="&#xc2;" horiz-adv-x="1273" d="M39 0q47 180 102.5 371.5t113.5 374t114.5 346t105.5 288.5h322q41 -109 96 -268.5t113.5 -344.5t118 -383t110.5 -384h-330l-63 270q-39 -4 -92.5 -8t-104.5 -4q-57 0 -116.5 3t-100.5 9l-61 -270h-328zM272 1612l275 299h180l274 -299l-124 -121l-232 211h-16 l-232 -211zM498 547q29 -4 66.5 -5t76.5 -1q35 0 72 2t59 6q-55 219 -131 452h-10q-39 -117 -73 -231.5t-60 -222.5z" />
<glyph unicode="&#xc3;" horiz-adv-x="1273" d="M39 0q47 180 102.5 371.5t113.5 374t114.5 346t105.5 288.5h322q41 -109 96 -268.5t113.5 -344.5t118 -383t110.5 -384h-330l-63 270q-39 -4 -92.5 -8t-104.5 -4q-57 0 -116.5 3t-100.5 9l-61 -270h-328zM250 1651q47 84 109.5 134t148.5 50q49 0 83 -16.5t62.5 -35 t57 -34.5t65.5 -16q41 0 72 25.5t51 70.5l127 -139q-41 -78 -105.5 -121t-142.5 -43q-51 0 -88 14t-65.5 32.5t-55 33t-57.5 14.5q-41 0 -77 -28.5t-66 -75.5zM498 547q29 -4 66.5 -5t76.5 -1q35 0 72 2t59 6q-55 219 -131 452h-10q-39 -117 -73 -231.5t-60 -222.5z" />
<glyph unicode="&#xc4;" horiz-adv-x="1273" d="M39 0q47 180 102.5 371.5t113.5 374t114.5 346t105.5 288.5h322q41 -109 96 -268.5t113.5 -344.5t118 -383t110.5 -384h-330l-63 270q-39 -4 -92.5 -8t-104.5 -4q-57 0 -116.5 3t-100.5 9l-61 -270h-328zM287 1686v14q0 72 32.5 109.5t116.5 37.5q82 0 113 -37.5 t31 -109.5v-14q0 -74 -31 -111t-113 -37q-84 0 -116.5 37t-32.5 111zM498 547q29 -4 66.5 -5t76.5 -1q35 0 72 2t59 6q-55 219 -131 452h-10q-39 -117 -73 -231.5t-60 -222.5zM692 1686v14q0 72 32 109.5t114 37.5q84 0 115.5 -37.5t31.5 -109.5v-14q0 -74 -31.5 -111 t-115.5 -37q-82 0 -114 37t-32 111z" />
<glyph unicode="&#xc5;" horiz-adv-x="1273" d="M39 0q47 180 102.5 371.5t113.5 374t114.5 346t105.5 288.5h322q41 -109 96 -268.5t113.5 -344.5t118 -383t110.5 -384h-330l-63 270q-39 -4 -92.5 -8t-104.5 -4q-57 0 -116.5 3t-100.5 9l-61 -270h-328zM401 1708q0 49 19.5 92t52.5 76t76 52.5t90 19.5t90 -19.5 t75 -52.5t50 -76t18 -92t-19 -92t-51 -75t-75 -51.5t-92 -19.5q-47 0 -90 19.5t-75 51.5t-50.5 75t-18.5 92zM498 547q29 -4 66.5 -5t76.5 -1q35 0 72 2t59 6q-55 219 -131 452h-10q-39 -117 -73 -231.5t-60 -222.5zM567 1708q0 -29 20.5 -49.5t47.5 -20.5q29 0 49.5 20.5 t20.5 49.5t-19.5 49.5t-48.5 20.5t-49.5 -20.5t-20.5 -49.5z" />
<glyph unicode="&#xc6;" horiz-adv-x="1865" d="M43 0q37 88 92 208t119.5 253t132.5 270t131.5 261t116.5 225.5t88 162.5h1053l-27 -288h-530v-254h473l-29 -287h-444v-262h548l-28 -289h-844v260q-80 -6 -168 -6q-53 0 -107.5 3t-111.5 7q-29 -68 -57.5 -130t-57.5 -134h-350zM637 551q29 -4 63.5 -5t71.5 -1 q35 0 66.5 1t56.5 5v551h-4q-33 -61 -64.5 -130t-64.5 -141.5t-63.5 -144.5t-61.5 -135z" />
<glyph unicode="&#xc7;" horiz-adv-x="1130" d="M90 651v23q0 170 42 307t125 233.5t205 147.5t283 51q74 0 154 -12t145 -39l-24 -295q-47 18 -113.5 30.5t-126.5 12.5q-152 0 -241 -86q-59 -57 -84 -147.5t-25 -192.5q0 -94 21.5 -185t74.5 -147q41 -41 104.5 -65.5t141.5 -24.5q59 0 129 11.5t133 35.5l13 -286 q-31 -12 -70 -22.5t-81 -18t-83 -11.5t-76 -4h-10l-18 -94q111 2 173 -46t62 -146q0 -117 -73.5 -178.5t-202.5 -61.5q-57 0 -115.5 14.5t-112.5 40.5l43 137q41 -16 87 -26t79 -10q55 0 82 19t27 50q0 70 -107 70q-35 0 -63.5 -4t-57.5 -11l-22 23l55 238 q-248 43 -360.5 213t-112.5 456z" />
<glyph unicode="&#xc8;" horiz-adv-x="1112" d="M139 0v1380h883l-27 -288h-532v-254h475l-29 -287h-446v-262h551l-29 -289h-846zM272 1706l136 219l471 -272l-93 -170z" />
<glyph unicode="&#xc9;" horiz-adv-x="1112" d="M139 0v1380h883l-27 -288h-532v-254h475l-29 -287h-446v-262h551l-29 -289h-846zM338 1653l471 272l135 -219l-514 -223z" />
<glyph unicode="&#xca;" horiz-adv-x="1112" d="M139 0v1380h883l-27 -288h-532v-254h475l-29 -287h-446v-262h551l-29 -289h-846zM221 1612l275 299h180l274 -299l-125 -121l-231 211h-16l-232 -211z" />
<glyph unicode="&#xcb;" horiz-adv-x="1112" d="M139 0v1380h883l-27 -288h-532v-254h475l-29 -287h-446v-262h551l-29 -289h-846zM250 1686v14q0 72 32.5 109.5t116.5 37.5q82 0 113 -37.5t31 -109.5v-14q0 -74 -31 -111t-113 -37q-84 0 -116.5 37t-32.5 111zM655 1686v14q0 72 32 109.5t114 37.5q84 0 115.5 -37.5 t31.5 -109.5v-14q0 -74 -31.5 -111t-115.5 -37q-82 0 -114 37t-32 111z" />
<glyph unicode="&#xcc;" horiz-adv-x="614" d="M-35 1706l135 219l471 -272l-92 -170zM145 0v1380h324v-1380h-324z" />
<glyph unicode="&#xcd;" horiz-adv-x="614" d="M31 1653l471 272l135 -219l-514 -223zM145 0v1380h324v-1380h-324z" />
<glyph unicode="&#xce;" horiz-adv-x="614" d="M-57 1612l274 299h180l275 -299l-125 -121l-232 211h-16l-231 -211zM145 0v1380h324v-1380h-324z" />
<glyph unicode="&#xcf;" horiz-adv-x="614" d="M-41 1686v14q0 72 33 109.5t117 37.5q82 0 112.5 -37.5t30.5 -109.5v-14q0 -74 -31 -111t-112 -37q-84 0 -117 37t-33 111zM145 0v1380h324v-1380h-324zM365 1686v14q0 72 31.5 109.5t113.5 37.5q84 0 115.5 -37.5t31.5 -109.5v-14q0 -74 -31.5 -111t-115.5 -37 q-82 0 -113.5 37t-31.5 111z" />
<glyph unicode="&#xd0;" horiz-adv-x="1331" d="M-2 563v256h141v561h377q123 0 221.5 -11t171.5 -40q166 -66 250 -222.5t84 -412.5q0 -193 -54 -341t-169 -236q-88 -66 -217 -91.5t-309 -25.5h-355v563h-141zM463 289h78q96 0 164.5 20.5t112.5 69.5t64.5 128t20.5 195q0 117 -19.5 195t-70.5 127q-35 35 -96.5 51.5 t-157.5 16.5h-96v-273h184v-256h-184v-274z" />
<glyph unicode="&#xd1;" horiz-adv-x="1404" d="M139 0v1380h269l561 -784v784h297v-1380h-256l-572 803v-803h-299zM317 1651q47 84 109.5 134t148.5 50q49 0 83 -16.5t63 -35t57.5 -34.5t65.5 -16q41 0 71.5 25.5t51.5 70.5l127 -139q-41 -78 -105.5 -121t-142.5 -43q-51 0 -88 14t-65.5 32.5t-55.5 33t-57 14.5 q-41 0 -77 -28.5t-67 -75.5z" />
<glyph unicode="&#xd2;" horiz-adv-x="1331" d="M90 688v6q0 162 31 295t98.5 227.5t177 145.5t269.5 51t269 -51t178 -145.5t98.5 -227.5t29.5 -295v-6q0 -164 -29.5 -296t-98.5 -227t-178.5 -146.5t-268.5 -51.5q-160 0 -269.5 51.5t-177 146.5t-98.5 227t-31 296zM342 1706l135 219l471 -272l-92 -170zM430 690 q0 -215 52.5 -322.5t183.5 -107.5t183 107.5t52 322.5q0 213 -52 321.5t-183 108.5t-183.5 -108.5t-52.5 -321.5z" />
<glyph unicode="&#xd3;" horiz-adv-x="1331" d="M90 688v6q0 162 31 295t98.5 227.5t177 145.5t269.5 51t269 -51t178 -145.5t98.5 -227.5t29.5 -295v-6q0 -164 -29.5 -296t-98.5 -227t-178.5 -146.5t-268.5 -51.5q-160 0 -269.5 51.5t-177 146.5t-98.5 227t-31 296zM385 1653l471 272l135 -219l-514 -223zM430 690 q0 -215 52.5 -322.5t183.5 -107.5t183 107.5t52 322.5q0 213 -52 321.5t-183 108.5t-183.5 -108.5t-52.5 -321.5z" />
<glyph unicode="&#xd4;" horiz-adv-x="1331" d="M90 688v6q0 162 31 295t98.5 227.5t177 145.5t269.5 51t269 -51t178 -145.5t98.5 -227.5t29.5 -295v-6q0 -164 -29.5 -296t-98.5 -227t-178.5 -146.5t-268.5 -51.5q-160 0 -269.5 51.5t-177 146.5t-98.5 227t-31 296zM301 1612l274 299h181l274 -299l-125 -121l-231 211 h-17l-231 -211zM430 690q0 -215 52.5 -322.5t183.5 -107.5t183 107.5t52 322.5q0 213 -52 321.5t-183 108.5t-183.5 -108.5t-52.5 -321.5z" />
<glyph unicode="&#xd5;" horiz-adv-x="1331" d="M90 688v6q0 162 31 295t98.5 227.5t177 145.5t269.5 51t269 -51t178 -145.5t98.5 -227.5t29.5 -295v-6q0 -164 -29.5 -296t-98.5 -227t-178.5 -146.5t-268.5 -51.5q-160 0 -269.5 51.5t-177 146.5t-98.5 227t-31 296zM287 1651q47 84 109.5 134t148.5 50q49 0 83 -16.5 t62.5 -35t57 -34.5t65.5 -16q41 0 71.5 25.5t51.5 70.5l127 -139q-41 -78 -105.5 -121t-142.5 -43q-51 0 -88 14t-65.5 32.5t-55 33t-57.5 14.5q-41 0 -77 -28.5t-66 -75.5zM430 690q0 -215 52.5 -322.5t183.5 -107.5t183 107.5t52 322.5q0 213 -52 321.5t-183 108.5 t-183.5 -108.5t-52.5 -321.5z" />
<glyph unicode="&#xd6;" horiz-adv-x="1331" d="M90 688v6q0 162 31 295t98.5 227.5t177 145.5t269.5 51t269 -51t178 -145.5t98.5 -227.5t29.5 -295v-6q0 -164 -29.5 -296t-98.5 -227t-178.5 -146.5t-268.5 -51.5q-160 0 -269.5 51.5t-177 146.5t-98.5 227t-31 296zM315 1686v14q0 72 33 109.5t117 37.5 q82 0 112.5 -37.5t30.5 -109.5v-14q0 -74 -30.5 -111t-112.5 -37q-84 0 -117 37t-33 111zM430 690q0 -215 52.5 -322.5t183.5 -107.5t183 107.5t52 322.5q0 213 -52 321.5t-183 108.5t-183.5 -108.5t-52.5 -321.5zM721 1686v14q0 72 31.5 109.5t113.5 37.5q84 0 116 -37.5 t32 -109.5v-14q0 -74 -32 -111t-116 -37q-82 0 -113.5 37t-31.5 111z" />
<glyph unicode="&#xd7;" d="M180 754l178 176l238 -242l231 230l160 -160l-233 -228l237 -241l-176 -178l-240 243l-229 -231l-162 162l236 225z" />
<glyph unicode="&#xd8;" horiz-adv-x="1331" d="M90 688v6q0 162 31 295t98.5 227.5t177 145.5t269.5 51q90 0 163.5 -19.5t133.5 -50.5l100 179l137 -68l-117 -205q84 -94 121 -234.5t37 -320.5v-6q0 -164 -29.5 -296t-98.5 -227t-178.5 -146.5t-268.5 -51.5q-86 0 -157 17.5t-128 46.5l-102 -181l-129 76l108 193 q-92 92 -130 237.5t-38 331.5zM430 690q0 -147 21 -237l352 616q-25 23 -59.5 37t-77.5 14q-131 0 -183.5 -108.5t-52.5 -321.5zM537 301q27 -18 57.5 -29.5t71.5 -11.5q131 0 184 107.5t53 322.5q0 123 -18 213z" />
<glyph unicode="&#xd9;" horiz-adv-x="1323" d="M133 526v856h324v-839q0 -72 8 -124t31.5 -88t63.5 -53.5t102 -17.5q63 0 103 17.5t62.5 53.5t30.5 88t8 124v839h324v-856q0 -137 -26.5 -241.5t-88 -175t-163 -106.5t-250.5 -36q-152 0 -253.5 36t-163 106.5t-87 175t-25.5 241.5zM340 1706l135 219l471 -272l-92 -170 z" />
<glyph unicode="&#xda;" horiz-adv-x="1323" d="M133 526v856h324v-839q0 -72 8 -124t31.5 -88t63.5 -53.5t102 -17.5q63 0 103 17.5t62.5 53.5t30.5 88t8 124v839h324v-856q0 -137 -26.5 -241.5t-88 -175t-163 -106.5t-250.5 -36q-152 0 -253.5 36t-163 106.5t-87 175t-25.5 241.5zM387 1653l471 272l135 -219 l-514 -223z" />
<glyph unicode="&#xdb;" horiz-adv-x="1323" d="M133 526v856h324v-839q0 -72 8 -124t31.5 -88t63.5 -53.5t102 -17.5q63 0 103 17.5t62.5 53.5t30.5 88t8 124v839h324v-856q0 -137 -26.5 -241.5t-88 -175t-163 -106.5t-250.5 -36q-152 0 -253.5 36t-163 106.5t-87 175t-25.5 241.5zM299 1612l274 299h181l274 -299 l-125 -121l-231 211h-17l-231 -211z" />
<glyph unicode="&#xdc;" horiz-adv-x="1323" d="M133 526v856h324v-839q0 -72 8 -124t31.5 -88t63.5 -53.5t102 -17.5q63 0 103 17.5t62.5 53.5t30.5 88t8 124v839h324v-856q0 -137 -26.5 -241.5t-88 -175t-163 -106.5t-250.5 -36q-152 0 -253.5 36t-163 106.5t-87 175t-25.5 241.5zM315 1686v14q0 72 33 109.5t117 37.5 q82 0 112.5 -37.5t30.5 -109.5v-14q0 -74 -30.5 -111t-112.5 -37q-84 0 -117 37t-33 111zM721 1686v14q0 72 31.5 109.5t113.5 37.5q84 0 116 -37.5t32 -109.5v-14q0 -74 -32 -111t-116 -37q-82 0 -113.5 37t-31.5 111z" />
<glyph unicode="&#xdd;" horiz-adv-x="1179" d="M35 1380h327q57 -184 109.5 -324.5t114.5 -269.5h8q61 129 112.5 269.5t110.5 324.5h328q-72 -229 -174.5 -466.5t-218.5 -452.5v-461h-324v461q-117 215 -219.5 452.5t-173.5 466.5zM348 1653l471 272l135 -219l-514 -223z" />
<glyph unicode="&#xde;" horiz-adv-x="1157" d="M139 0v1380h324v-206h35q102 0 183 -8.5t150 -30.5q117 -41 185.5 -143.5t68.5 -276.5q0 -236 -140 -352.5t-392 -116.5h-90v-246h-324zM463 535h63q51 0 92 5t70 23.5t43 54t14 97.5q0 47 -15 84t-44 55t-65.5 25.5t-90.5 7.5h-67v-352z" />
<glyph unicode="&#xdf;" horiz-adv-x="1230" d="M109 -334v1706q111 39 239.5 60.5t251.5 21.5q109 0 212 -26.5t167 -86.5q53 -47 85 -113.5t32 -152.5q0 -47 -11.5 -95t-34 -91t-55 -78t-75.5 -51v-8q117 -33 181 -123t64 -205q0 -117 -39 -203t-107.5 -142t-160.5 -84t-199 -28q-37 0 -76.5 3t-76.5 7l14 275 q57 -10 123 -10q100 0 152.5 48t52.5 130q0 98 -63.5 137t-174.5 39h-59v250h47q180 0 180 184q0 156 -182 156q-51 0 -99 -8.5t-87 -20.5v-1491h-301z" />
<glyph unicode="&#xe0;" horiz-adv-x="1050" d="M57 272q0 186 141.5 281.5t403.5 95.5h33v35q0 59 -30 81.5t-109 22.5q-37 0 -81 -6t-89 -17t-88 -26.5t-78 -33.5l-39 233q41 18 92 34.5t105.5 28t109.5 18.5t104 7q143 0 244 -46t137 -161q10 -33 15.5 -78t5.5 -86v-460q0 -29 13.5 -38.5t47.5 -9.5v-159 q-25 -8 -68.5 -14.5t-88.5 -6.5q-68 0 -117 26.5t-66 92.5h-4q-43 -55 -114.5 -87t-165.5 -32q-63 0 -119.5 18.5t-99.5 56.5t-69 95.5t-26 134.5zM203 1339l135 217l471 -270l-92 -172zM369 307q0 -49 27.5 -77.5t84.5 -28.5q41 0 82 17.5t72 45.5v185h-21q-49 0 -96 -7.5 t-82 -25.5q-29 -16 -48 -44t-19 -65z" />
<glyph unicode="&#xe1;" horiz-adv-x="1050" d="M57 272q0 186 141.5 281.5t403.5 95.5h33v35q0 59 -30 81.5t-109 22.5q-37 0 -81 -6t-89 -17t-88 -26.5t-78 -33.5l-39 233q41 18 92 34.5t105.5 28t109.5 18.5t104 7q143 0 244 -46t137 -161q10 -33 15.5 -78t5.5 -86v-460q0 -29 13.5 -38.5t47.5 -9.5v-159 q-25 -8 -68.5 -14.5t-88.5 -6.5q-68 0 -117 26.5t-66 92.5h-4q-43 -55 -114.5 -87t-165.5 -32q-63 0 -119.5 18.5t-99.5 56.5t-69 95.5t-26 134.5zM283 1286l471 270l135 -217l-514 -225zM369 307q0 -49 27.5 -77.5t84.5 -28.5q41 0 82 17.5t72 45.5v185h-21q-49 0 -96 -7.5 t-82 -25.5q-29 -16 -48 -44t-19 -65z" />
<glyph unicode="&#xe2;" horiz-adv-x="1050" d="M57 272q0 186 141.5 281.5t403.5 95.5h33v35q0 59 -30 81.5t-109 22.5q-37 0 -81 -6t-89 -17t-88 -26.5t-78 -33.5l-39 233q41 18 92 34.5t105.5 28t109.5 18.5t104 7q143 0 244 -46t137 -161q10 -33 15.5 -78t5.5 -86v-460q0 -29 13.5 -38.5t47.5 -9.5v-159 q-25 -8 -68.5 -14.5t-88.5 -6.5q-68 0 -117 26.5t-66 92.5h-4q-43 -55 -114.5 -87t-165.5 -32q-63 0 -119.5 18.5t-99.5 56.5t-69 95.5t-26 134.5zM168 1243l274 301h181l274 -301l-125 -119l-235 211h-9l-235 -211zM369 307q0 -49 27.5 -77.5t84.5 -28.5q41 0 82 17.5 t72 45.5v185h-21q-49 0 -96 -7.5t-82 -25.5q-29 -16 -48 -44t-19 -65z" />
<glyph unicode="&#xe3;" horiz-adv-x="1050" d="M57 272q0 186 141.5 281.5t403.5 95.5h33v35q0 59 -30 81.5t-109 22.5q-37 0 -81 -6t-89 -17t-88 -26.5t-78 -33.5l-39 233q41 18 92 34.5t105.5 28t109.5 18.5t104 7q143 0 244 -46t137 -161q10 -33 15.5 -78t5.5 -86v-460q0 -29 13.5 -38.5t47.5 -9.5v-159 q-25 -8 -68.5 -14.5t-88.5 -6.5q-68 0 -117 26.5t-66 92.5h-4q-43 -55 -114.5 -87t-165.5 -32q-63 0 -119.5 18.5t-99.5 56.5t-69 95.5t-26 134.5zM162 1284q47 84 109.5 134t148.5 50q49 0 83 -16t62.5 -34.5t57 -35t65.5 -16.5q41 0 72 25.5t51 70.5l127 -139 q-41 -78 -106.5 -121t-141.5 -43q-51 0 -88 14.5t-65.5 32t-55 31.5t-57.5 14q-41 0 -77 -27.5t-66 -74.5zM369 307q0 -49 27.5 -77.5t84.5 -28.5q41 0 82 17.5t72 45.5v185h-21q-49 0 -96 -7.5t-82 -25.5q-29 -16 -48 -44t-19 -65z" />
<glyph unicode="&#xe4;" horiz-adv-x="1050" d="M57 272q0 186 141.5 281.5t403.5 95.5h33v35q0 59 -30 81.5t-109 22.5q-37 0 -81 -6t-89 -17t-88 -26.5t-78 -33.5l-39 233q41 18 92 34.5t105.5 28t109.5 18.5t104 7q143 0 244 -46t137 -161q10 -33 15.5 -78t5.5 -86v-460q0 -29 13.5 -38.5t47.5 -9.5v-159 q-25 -8 -68.5 -14.5t-88.5 -6.5q-68 0 -117 26.5t-66 92.5h-4q-43 -55 -114.5 -87t-165.5 -32q-63 0 -119.5 18.5t-99.5 56.5t-69 95.5t-26 134.5zM203 1317v16q0 72 32.5 110t116.5 38q82 0 113 -38t31 -110v-16q0 -72 -31 -110t-113 -38q-84 0 -116.5 38t-32.5 110z M369 307q0 -49 27.5 -77.5t84.5 -28.5q41 0 82 17.5t72 45.5v185h-21q-49 0 -96 -7.5t-82 -25.5q-29 -16 -48 -44t-19 -65zM608 1317v16q0 72 32 110t114 38q84 0 115.5 -38t31.5 -110v-16q0 -72 -31.5 -110t-115.5 -38q-82 0 -114 38t-32 110z" />
<glyph unicode="&#xe5;" horiz-adv-x="1050" d="M57 272q0 186 141.5 281.5t403.5 95.5h33v35q0 59 -30 81.5t-109 22.5q-37 0 -81 -6t-89 -17t-88 -26.5t-78 -33.5l-39 233q41 18 92 34.5t105.5 28t109.5 18.5t104 7q143 0 244 -46t137 -161q10 -33 15.5 -78t5.5 -86v-460q0 -29 13.5 -38.5t47.5 -9.5v-159 q-25 -8 -68.5 -14.5t-88.5 -6.5q-68 0 -117 26.5t-66 92.5h-4q-43 -55 -114.5 -87t-165.5 -32q-63 0 -119.5 18.5t-99.5 56.5t-69 95.5t-26 134.5zM322 1372q0 109 67.5 174.5t167.5 65.5t168 -65.5t68 -174.5t-68 -174t-168 -65t-167.5 65.5t-67.5 173.5zM369 307 q0 -49 27.5 -77.5t84.5 -28.5q41 0 82 17.5t72 45.5v185h-21q-49 0 -96 -7.5t-82 -25.5q-29 -16 -48 -44t-19 -65zM489 1372q0 -29 18.5 -49t49.5 -20t49.5 20t18.5 49t-18.5 49.5t-49.5 20.5t-49.5 -20.5t-18.5 -49.5z" />
<glyph unicode="&#xe6;" horiz-adv-x="1636" d="M57 272q0 186 141.5 281.5t403.5 95.5h33v37q0 49 -31 75.5t-110 26.5q-37 0 -81 -6t-88 -17t-87 -26.5t-78 -33.5l-39 233q90 37 197.5 62.5t201.5 25.5q106 0 183 -30.5t118 -98.5q47 57 127 93t185 36q113 0 193.5 -34t132.5 -97.5t78 -154.5t26 -203q0 -41 -1 -83 t-6 -81h-595q10 -68 63 -113t166 -45q86 0 168 11.5t149 33.5l11 -235q-78 -31 -163 -44.5t-173 -13.5q-139 0 -251 37t-179 113q-74 -76 -164 -113t-207 -37q-68 0 -126 18.5t-102 56.5t-70 95.5t-26 134.5zM369 307q0 -49 26.5 -77.5t85.5 -28.5q47 0 98.5 23.5t79.5 60.5 q-12 41 -16 79.5t-4 84.5h-25q-49 0 -96 -7.5t-82 -25.5q-29 -16 -48 -44t-19 -65zM958 584h306v22q0 37 -6.5 72t-21.5 60.5t-44 42t-74 16.5q-88 0 -124 -55.5t-36 -143.5v-14z" />
<glyph unicode="&#xe7;" horiz-adv-x="940" d="M72 483v13q0 150 43 251t114.5 163.5t164.5 89t194 26.5q78 0 152.5 -14.5t127.5 -38.5l-16 -258q-47 25 -107.5 39t-113.5 14q-248 0 -248 -268q0 -150 63.5 -214.5t186.5 -64.5q47 0 104.5 9.5t124.5 31.5l10 -248q-59 -23 -130.5 -34t-137.5 -13l-18 -94 q111 2 173 -46t62 -146q0 -117 -73.5 -178.5t-202.5 -61.5q-57 0 -115.5 14.5t-112.5 40.5l43 137q41 -16 87.5 -26t78.5 -10q55 0 82 19t27 50q0 70 -107 70q-35 0 -63.5 -4t-56.5 -11l-23 23l55 236q-180 31 -270 153q-47 66 -72.5 154t-25.5 196z" />
<glyph unicode="&#xe8;" horiz-adv-x="1056" d="M72 496v6q0 256 122.5 390t358.5 134q113 0 193.5 -34t133 -97.5t78 -154.5t25.5 -203q0 -41 -1 -83t-5 -81h-596q10 -68 63.5 -113t165.5 -45q86 0 168 11.5t150 33.5l10 -235q-78 -31 -163 -44.5t-173 -13.5q-127 0 -225 28t-166 91.5t-103.5 163.5t-35.5 246z M203 1339l135 217l471 -270l-92 -172zM379 584h305v22q0 37 -6 72t-21.5 60.5t-44 42t-73.5 16.5q-88 0 -124 -55.5t-36 -143.5v-14z" />
<glyph unicode="&#xe9;" horiz-adv-x="1056" d="M72 496v6q0 256 122.5 390t358.5 134q113 0 193.5 -34t133 -97.5t78 -154.5t25.5 -203q0 -41 -1 -83t-5 -81h-596q10 -68 63.5 -113t165.5 -45q86 0 168 11.5t150 33.5l10 -235q-78 -31 -163 -44.5t-173 -13.5q-127 0 -225 28t-166 91.5t-103.5 163.5t-35.5 246z M305 1286l471 270l135 -217l-514 -225zM379 584h305v22q0 37 -6 72t-21.5 60.5t-44 42t-73.5 16.5q-88 0 -124 -55.5t-36 -143.5v-14z" />
<glyph unicode="&#xea;" horiz-adv-x="1056" d="M72 496v6q0 256 122.5 390t358.5 134q113 0 193.5 -34t133 -97.5t78 -154.5t25.5 -203q0 -41 -1 -83t-5 -81h-596q10 -68 63.5 -113t165.5 -45q86 0 168 11.5t150 33.5l10 -235q-78 -31 -163 -44.5t-173 -13.5q-127 0 -225 28t-166 91.5t-103.5 163.5t-35.5 246z M190 1235l275 301h180l275 -301l-125 -119l-236 211h-8l-236 -211zM379 584h305v22q0 37 -6 72t-21.5 60.5t-44 42t-73.5 16.5q-88 0 -124 -55.5t-36 -143.5v-14z" />
<glyph unicode="&#xeb;" horiz-adv-x="1056" d="M72 496v6q0 256 122.5 390t358.5 134q113 0 193.5 -34t133 -97.5t78 -154.5t25.5 -203q0 -41 -1 -83t-5 -81h-596q10 -68 63.5 -113t165.5 -45q86 0 168 11.5t150 33.5l10 -235q-78 -31 -163 -44.5t-173 -13.5q-127 0 -225 28t-166 91.5t-103.5 163.5t-35.5 246z M209 1317v16q0 72 32.5 110t116.5 38q82 0 113 -38t31 -110v-16q0 -72 -31 -110t-113 -38q-84 0 -116.5 38t-32.5 110zM379 584h305v22q0 37 -6 72t-21.5 60.5t-44 42t-73.5 16.5q-88 0 -124 -55.5t-36 -143.5v-14zM614 1317v16q0 72 32 110t114 38q84 0 115.5 -38 t31.5 -110v-16q0 -72 -31.5 -110t-115.5 -38q-82 0 -114 38t-32 110z" />
<glyph unicode="&#xec;" horiz-adv-x="526" d="M-86 1339l135 217l471 -270l-92 -172zM113 0v993h301v-993h-301z" />
<glyph unicode="&#xed;" horiz-adv-x="526" d="M6 1286l471 270l135 -217l-514 -225zM113 0v993h301v-993h-301z" />
<glyph unicode="&#xee;" horiz-adv-x="526" d="M-102 1235l274 301h180l275 -301l-125 -119l-236 211h-8l-235 -211zM113 0v993h301v-993h-301z" />
<glyph unicode="&#xef;" horiz-adv-x="526" d="M-86 1317v16q0 72 33 110t116 38q82 0 113 -38t31 -110v-16q0 -72 -31 -110t-113 -38q-84 0 -116.5 38t-32.5 110zM113 0v993h301v-993h-301zM319 1317v16q0 72 32 110t114 38q84 0 115.5 -38t31.5 -110v-16q0 -72 -31.5 -110t-115.5 -38q-82 0 -114 38t-32 110z" />
<glyph unicode="&#xf0;" horiz-adv-x="1153" d="M72 508q0 143 41 238.5t103.5 152.5t135 79.5t135.5 22.5q51 0 93.5 -7t76.5 -17q-45 92 -155 174l-131 -94l-86 100l90 68q-37 14 -74 27.5t-76 23.5l203 129q66 -20 127 -47l127 96l92 -102l-84 -64q186 -117 288.5 -305t102.5 -438q0 -143 -36.5 -252t-104.5 -180.5 t-164 -108.5t-215 -37q-98 0 -187 31t-156.5 97.5t-106.5 169t-39 243.5zM410 514q0 -76 13 -128t35.5 -85t52.5 -48t62 -15q78 0 124 66.5t46 213.5q0 49 -5 96t-17 88q-31 10 -63.5 15.5t-73.5 5.5q-35 0 -67 -9t-55.5 -33t-37.5 -63.5t-14 -103.5z" />
<glyph unicode="&#xf1;" horiz-adv-x="1134" d="M109 0v993h268l10 -96h4q53 57 129 93t180 36q74 0 138.5 -23.5t103.5 -64.5q47 -49 68.5 -124t21.5 -175v-639h-301v592q0 47 -6 74.5t-20 46.5q-33 43 -103 43q-59 0 -108.5 -24.5t-83.5 -63.5v-668h-301zM188 1276q47 84 109.5 134t148.5 50q49 0 83 -16.5t63 -34.5 t57.5 -34.5t65.5 -16.5q41 0 71.5 25.5t51.5 70.5l127 -139q-41 -78 -106.5 -121t-141.5 -43q-51 0 -88 14.5t-65.5 31.5t-55.5 31.5t-57 14.5q-41 0 -77 -27.5t-67 -74.5z" />
<glyph unicode="&#xf2;" horiz-adv-x="1140" d="M72 489v15q0 250 125 386t374 136q250 0 374 -136t124 -386v-15q0 -250 -124 -386t-374 -136t-374.5 136.5t-124.5 385.5zM244 1339l135 217l471 -270l-92 -172zM383 496q0 -152 47 -217.5t141 -65.5q92 0 139.5 65.5t47.5 217.5q0 154 -47.5 219t-139.5 65 q-94 0 -141 -65.5t-47 -218.5z" />
<glyph unicode="&#xf3;" horiz-adv-x="1140" d="M72 489v15q0 250 125 386t374 136q250 0 374 -136t124 -386v-15q0 -250 -124 -386t-374 -136t-374.5 136.5t-124.5 385.5zM309 1286l471 270l135 -217l-514 -225zM383 496q0 -152 47 -217.5t141 -65.5q92 0 139.5 65.5t47.5 217.5q0 154 -47.5 219t-139.5 65 q-94 0 -141 -65.5t-47 -218.5z" />
<glyph unicode="&#xf4;" horiz-adv-x="1140" d="M72 489v15q0 250 125 386t374 136q250 0 374 -136t124 -386v-15q0 -250 -124 -386t-374 -136t-374.5 136.5t-124.5 385.5zM207 1235l274 301h181l274 -301l-125 -119l-236 211h-8l-235 -211zM383 496q0 -152 47 -217.5t141 -65.5q92 0 139.5 65.5t47.5 217.5 q0 154 -47.5 219t-139.5 65q-94 0 -141 -65.5t-47 -218.5z" />
<glyph unicode="&#xf5;" horiz-adv-x="1140" d="M72 489v15q0 250 125 386t374 136q250 0 374 -136t124 -386v-15q0 -250 -124 -386t-374 -136t-374.5 136.5t-124.5 385.5zM188 1276q47 84 109.5 134t148.5 50q49 0 83 -16.5t63 -34.5t57.5 -34.5t65.5 -16.5q41 0 71.5 25.5t51.5 70.5l127 -139q-41 -78 -106.5 -121 t-141.5 -43q-51 0 -88 14.5t-65.5 31.5t-55.5 31.5t-57 14.5q-41 0 -77 -27.5t-67 -74.5zM383 496q0 -152 47 -217.5t141 -65.5q92 0 139.5 65.5t47.5 217.5q0 154 -47.5 219t-139.5 65q-94 0 -141 -65.5t-47 -218.5z" />
<glyph unicode="&#xf6;" horiz-adv-x="1140" d="M72 489v15q0 250 125 386t374 136q250 0 374 -136t124 -386v-15q0 -250 -124 -386t-374 -136t-374.5 136.5t-124.5 385.5zM221 1317v16q0 72 33 110t117 38q82 0 112.5 -38t30.5 -110v-16q0 -72 -30.5 -110t-112.5 -38q-84 0 -117 38t-33 110zM383 496q0 -152 47 -217.5 t141 -65.5q92 0 139.5 65.5t47.5 217.5q0 154 -47.5 219t-139.5 65q-94 0 -141 -65.5t-47 -218.5zM627 1317v16q0 72 31.5 110t113.5 38q84 0 116 -38t32 -110v-16q0 -72 -32 -110t-116 -38q-82 0 -113.5 38t-31.5 110z" />
<glyph unicode="&#xf7;" d="M158 391v258h858v-258h-858zM438 133v17q0 66 30 106.5t118 40.5t117.5 -41t29.5 -106v-17q0 -68 -29.5 -107.5t-117.5 -39.5t-118 40t-30 107zM438 893v14q0 68 30 108t118 40t117.5 -40t29.5 -108v-14q0 -68 -29.5 -108t-117.5 -40t-118 40t-30 108z" />
<glyph unicode="&#xf8;" horiz-adv-x="1140" d="M72 489v15q0 250 125 386t374 136q145 0 254 -51l115 162l129 -80l-123 -170q123 -135 123 -383v-15q0 -250 -124 -386t-374 -136q-143 0 -249 47l-109 -149l-119 88l107 147q-129 135 -129 389zM383 496q0 -37 2 -68t8 -57l275 385q-41 25 -97 24q-94 0 -141 -65.5 t-47 -218.5zM479 233q35 -20 92 -20q92 0 139.5 65.5t47.5 217.5q0 33 -2 61.5t-6 52.5z" />
<glyph unicode="&#xf9;" horiz-adv-x="1085" d="M98 494v499h299v-536q0 -55 2 -96.5t9 -63.5q23 -84 135 -84q113 0 135 84q6 23 8 63.5t2 96.5v536h299v-499q0 -78 -1 -132.5t-5 -76.5q-20 -174 -128 -246t-310 -72q-203 0 -310.5 72t-128.5 246q-4 23 -5 77t-1 132zM225 1339l135 217l471 -270l-92 -172z" />
<glyph unicode="&#xfa;" horiz-adv-x="1085" d="M98 494v499h299v-536q0 -55 2 -96.5t9 -63.5q23 -84 135 -84q113 0 135 84q6 23 8 63.5t2 96.5v536h299v-499q0 -78 -1 -132.5t-5 -76.5q-20 -174 -128 -246t-310 -72q-203 0 -310.5 72t-128.5 246q-4 23 -5 77t-1 132zM303 1286l471 270l135 -217l-514 -225z" />
<glyph unicode="&#xfb;" horiz-adv-x="1085" d="M98 494v499h299v-536q0 -55 2 -96.5t9 -63.5q23 -84 135 -84q113 0 135 84q6 23 8 63.5t2 96.5v536h299v-499q0 -78 -1 -132.5t-5 -76.5q-20 -174 -128 -246t-310 -72q-203 0 -310.5 72t-128.5 246q-4 23 -5 77t-1 132zM186 1235l275 301h180l274 -301l-124 -119 l-236 211h-8l-236 -211z" />
<glyph unicode="&#xfc;" horiz-adv-x="1085" d="M98 494v499h299v-536q0 -55 2 -96.5t9 -63.5q23 -84 135 -84q113 0 135 84q6 23 8 63.5t2 96.5v536h299v-499q0 -78 -1 -132.5t-5 -76.5q-20 -174 -128 -246t-310 -72q-203 0 -310.5 72t-128.5 246q-4 23 -5 77t-1 132zM195 1317v16q0 72 32.5 110t116.5 38 q82 0 112.5 -38t30.5 -110v-16q0 -72 -30.5 -110t-112.5 -38q-84 0 -116.5 38t-32.5 110zM600 1317v16q0 72 32 110t113 38q84 0 116 -38t32 -110v-16q0 -72 -32 -110t-116 -38q-82 0 -113.5 38t-31.5 110z" />
<glyph unicode="&#xfd;" horiz-adv-x="1036" d="M29 993h321q37 -207 85 -386t93 -304h4q49 141 88 314.5t76 375.5h312q-53 -252 -133 -506t-191 -505q-53 -119 -103.5 -198t-104.5 -127t-116.5 -68.5t-136.5 -20.5q-51 0 -98 7t-78 15l10 230q25 -6 57.5 -11.5t57.5 -5.5q72 0 128 45.5t91 137.5 q-106 193 -198.5 449.5t-163.5 557.5zM301 1286l471 270l135 -217l-514 -225z" />
<glyph unicode="&#xfe;" horiz-adv-x="1142" d="M109 -408v1829h301v-503q43 45 112.5 76.5t149.5 31.5q193 0 296 -136t103 -370v-12q0 -104 -24.5 -201.5t-76.5 -173.5t-134 -121t-195 -45q-70 0 -135.5 30t-95.5 60v-465h-301zM410 297q25 -25 67.5 -44.5t93.5 -19.5q55 0 91 21.5t57.5 58.5t31 86.5t9.5 102.5 q0 41 -6 87t-24.5 84t-51.5 62.5t-86 24.5t-103.5 -25.5t-78.5 -66.5v-371z" />
<glyph unicode="&#xff;" horiz-adv-x="1036" d="M29 993h321q37 -207 85 -386t93 -304h4q49 141 88 314.5t76 375.5h312q-53 -252 -133 -506t-191 -505q-53 -119 -103.5 -198t-104.5 -127t-116.5 -68.5t-136.5 -20.5q-51 0 -98 7t-78 15l10 230q25 -6 57.5 -11.5t57.5 -5.5q72 0 128 45.5t91 137.5 q-106 193 -198.5 449.5t-163.5 557.5zM172 1317v16q0 72 33 110t117 38q82 0 112.5 -38t30.5 -110v-16q0 -72 -31 -110t-112 -38q-84 0 -117 38t-33 110zM578 1317v16q0 72 31.5 110t113.5 38q84 0 115.5 -38t31.5 -110v-16q0 -72 -31.5 -110t-115.5 -38q-82 0 -113.5 38 t-31.5 110z" />
<glyph unicode="&#x152;" horiz-adv-x="1820" d="M90 688v6q0 152 31 282t92 226t155.5 151.5t221.5 55.5q98 0 167.5 -34t110.5 -85v90h863l-27 -288h-533v-254h476l-29 -287h-447v-262h549l-28 -289h-815v100q-37 -59 -108 -94t-169 -35q-133 0 -229.5 49.5t-158.5 142.5t-92 226t-30 299zM430 690q0 -215 52.5 -318.5 t183.5 -103.5q55 0 104 19.5t78 54.5v711q-66 59 -182 59q-131 0 -183.5 -104.5t-52.5 -317.5z" />
<glyph unicode="&#x153;" horiz-adv-x="1742" d="M72 489v15q0 250 125 386t374 136q111 0 194 -37t142 -100q63 63 144.5 100t185.5 37q111 0 186.5 -34t122.5 -89q33 -41 56.5 -86t38 -104.5t21.5 -136t7 -177.5v-26h-598q10 -68 61.5 -113t163.5 -45q86 0 168 11.5t150 33.5l10 -235q-78 -31 -163 -44.5t-173 -13.5 q-123 0 -220 36t-163 95q-59 -63 -141 -97t-193 -34q-250 0 -374.5 136.5t-124.5 385.5zM383 496q0 -152 44 -219.5t144 -67.5t143.5 67.5t43.5 219.5q0 154 -43.5 221t-143.5 67t-144 -67.5t-44 -220.5zM1069 575h297v23q0 37 -4 73t-18.5 64.5t-42 46t-72.5 17.5 t-76 -16.5t-49.5 -44t-26.5 -66.5t-8 -82v-15z" />
<glyph unicode="&#x178;" horiz-adv-x="1179" d="M35 1380h327q57 -184 109.5 -324.5t114.5 -269.5h8q61 129 112.5 269.5t110.5 324.5h328q-72 -229 -174.5 -466.5t-218.5 -452.5v-461h-324v461q-117 215 -219.5 452.5t-173.5 466.5zM244 1686v14q0 72 32.5 109.5t116.5 37.5q82 0 113 -37.5t31 -109.5v-14 q0 -74 -31 -111t-113 -37q-84 0 -116.5 37t-32.5 111zM649 1686v14q0 72 32 109.5t114 37.5q84 0 115.5 -37.5t31.5 -109.5v-14q0 -74 -31.5 -111t-115.5 -37q-82 0 -114 37t-32 111z" />
<glyph unicode="&#x2c6;" horiz-adv-x="815" d="M43 1235l274 301h181l274 -301l-125 -119l-235 211h-9l-235 -211z" />
<glyph unicode="&#x2dc;" horiz-adv-x="815" d="M23 1276q47 84 109.5 134t148.5 50q49 0 82.5 -16.5t62.5 -34.5t57.5 -34.5t65.5 -16.5q41 0 71.5 25.5t51.5 70.5l127 -139q-41 -78 -106.5 -121t-141.5 -43q-51 0 -88 14.5t-65.5 31.5t-55.5 31.5t-57 14.5q-41 0 -77 -27.5t-67 -74.5z" />
<glyph unicode="&#x2000;" horiz-adv-x="974" />
<glyph unicode="&#x2001;" horiz-adv-x="1948" />
<glyph unicode="&#x2002;" horiz-adv-x="974" />
<glyph unicode="&#x2003;" horiz-adv-x="1948" />
<glyph unicode="&#x2004;" horiz-adv-x="649" />
<glyph unicode="&#x2005;" horiz-adv-x="487" />
<glyph unicode="&#x2006;" horiz-adv-x="324" />
<glyph unicode="&#x2007;" horiz-adv-x="324" />
<glyph unicode="&#x2008;" horiz-adv-x="243" />
<glyph unicode="&#x2009;" horiz-adv-x="389" />
<glyph unicode="&#x200a;" horiz-adv-x="108" />
<glyph unicode="&#x2010;" horiz-adv-x="608" d="M70 369v258h469v-258h-469z" />
<glyph unicode="&#x2011;" horiz-adv-x="608" d="M70 369v258h469v-258h-469z" />
<glyph unicode="&#x2012;" horiz-adv-x="608" d="M70 369v258h469v-258h-469z" />
<glyph unicode="&#x2013;" horiz-adv-x="1024" d="M0 369v258h1024v-258h-1024z" />
<glyph unicode="&#x2014;" horiz-adv-x="2048" d="M0 369v258h2048v-258h-2048z" />
<glyph unicode="&#x2018;" horiz-adv-x="593" d="M123 854zM123 1026v10q0 41 12 98.5t36.5 127t60.5 146.5t81 157l154 -64q-37 -82 -66.5 -149.5t-52.5 -139.5q66 -23 92.5 -67.5t26.5 -114.5v-16q0 -74 -38 -117t-136 -43t-134 47t-36 125z" />
<glyph unicode="&#x2019;" horiz-adv-x="593" d="M127 852zM127 915q37 82 66.5 149.5t52.5 139.5q-66 23 -92.5 67.5t-26.5 114.5v16q0 74 38 117t136 43t134 -47t36 -125v-10q0 -41 -12 -98.5t-36.5 -127t-60.5 -146.5t-81 -157z" />
<glyph unicode="&#x201a;" horiz-adv-x="593" d="M127 0zM127 129v16q0 74 38 117t136 43t134 -47t36 -125v-10q0 -41 -12 -98.5t-36.5 -127t-60.5 -146.5t-81 -157l-154 64q37 82 66.5 149.5t52.5 139.5q-66 23 -92.5 67.5t-26.5 114.5z" />
<glyph unicode="&#x201c;" horiz-adv-x="1081" d="M123 854zM123 1026v10q0 41 12 98.5t36.5 127t60.5 146.5t81 157l154 -64q-37 -82 -66.5 -149.5t-52.5 -139.5q66 -23 92.5 -67.5t26.5 -114.5v-16q0 -74 -38 -117t-136 -43t-134 47t-36 125zM611 1026v10q0 41 12 98.5t36.5 127t60.5 146.5t81 157l154 -64 q-37 -82 -66.5 -149.5t-52.5 -139.5q66 -23 92.5 -67.5t26.5 -114.5v-16q0 -74 -38 -117t-136 -43t-134 47t-36 125z" />
<glyph unicode="&#x201d;" horiz-adv-x="1081" d="M127 852zM127 915q37 82 66.5 149.5t52.5 139.5q-66 23 -92.5 67.5t-26.5 114.5v16q0 74 38 117t136 43t134 -47t36 -125v-10q0 -41 -12 -98.5t-36.5 -127t-60.5 -146.5t-81 -157zM614 915q37 82 66.5 149.5t52.5 139.5q-66 23 -92.5 67.5t-26.5 114.5v16q0 74 38 117 t136 43t134 -47t36 -125v-10q0 -41 -12 -98.5t-36.5 -127t-60.5 -146.5t-81 -157z" />
<glyph unicode="&#x201e;" horiz-adv-x="1081" d="M127 0zM127 129v16q0 74 38 117t136 43t134 -47t36 -125v-10q0 -41 -12 -98.5t-36.5 -127t-60.5 -146.5t-81 -157l-154 64q37 82 66.5 149.5t52.5 139.5q-66 23 -92.5 67.5t-26.5 114.5zM614 129v16q0 74 38 117t136 43t134 -47t36 -125v-10q0 -41 -12 -98.5t-36.5 -127 t-60.5 -146.5t-81 -157l-154 64q37 82 66.5 149.5t52.5 139.5q-66 23 -92.5 67.5t-26.5 114.5z" />
<glyph unicode="&#x2022;" horiz-adv-x="737" d="M111 317v519h516v-519h-516z" />
<glyph unicode="&#x2026;" horiz-adv-x="1609" d="M106 129v16q0 74 33 117t129 43t130 -43t34 -117v-16q0 -74 -33.5 -118t-130.5 -44q-96 0 -129 44t-33 118zM643 129v16q0 74 33 117t129 43t130 -43t34 -117v-16q0 -74 -34 -118t-130 -44t-129 44t-33 118zM1180 129v16q0 74 32.5 117t128.5 43t130 -43t34 -117v-16 q0 -74 -33.5 -118t-130.5 -44q-96 0 -128.5 44t-32.5 118z" />
<glyph unicode="&#x202f;" horiz-adv-x="389" />
<glyph unicode="&#x2039;" horiz-adv-x="708" d="M59 498l363 514l217 -133l-268 -381l268 -379q-53 -35 -108.5 -68t-108.5 -67z" />
<glyph unicode="&#x203a;" horiz-adv-x="708" d="M59 119l269 379l-269 381l217 133l363 -514l-363 -514z" />
<glyph unicode="&#x205f;" horiz-adv-x="487" />
<glyph unicode="&#x20ac;" d="M49 428l19 213h151v25v30.5t2 30.5h-145l18 215h156q51 219 198.5 345t374.5 126q70 0 143.5 -12t133.5 -39l-25 -305q-41 20 -103.5 31.5t-115.5 11.5q-102 0 -162.5 -44t-91.5 -114h301l-18 -215h-324q-2 -10 -2 -19.5v-21.5v-22.5t2 -22.5h316l-21 -213h-258 q25 -72 85 -114t165 -42q53 0 117.5 11.5t124.5 35.5l12 -296q-57 -25 -139 -40.5t-148 -15.5q-256 0 -393 121t-180 340h-193z" />
<glyph unicode="&#x2122;" horiz-adv-x="1519" d="M57 1280v176h543l-10 -176h-156v-473h-217v473h-160zM672 807q4 166 13 335t20 314h239q31 -88 57.5 -170t55.5 -174q29 92 51 174t51 170h242q8 -145 17 -314t14 -335h-193q-2 94 -5 182t-7 187q-27 -86 -51.5 -162t-51.5 -146h-141q-27 70 -51.5 146t-52.5 162 q-6 -98 -9.5 -186.5t-5.5 -182.5h-192z" />
<glyph unicode="&#xe000;" horiz-adv-x="993" d="M0 0v993h993v-993h-993z" />
</font>
</defs>
</svg>
